<?xml version="1.0" standalone="no"?>
<!DOCTYPE svg PUBLIC "-//W3C//DTD SVG 1.1//EN" "http://www.w3.org/Graphics/SVG/1.1/DTD/svg11.dtd" >
<svg xmlns="http://www.w3.org/2000/svg">
<metadata></metadata>
<defs>
<font id="oxygenregular" horiz-adv-x="1300" >
<font-face units-per-em="2048" ascent="1638" descent="-410" />
<missing-glyph horiz-adv-x="432" />
<glyph horiz-adv-x="0" />
<glyph unicode="&#xd;" horiz-adv-x="319" />
<glyph unicode=" "  horiz-adv-x="432" />
<glyph unicode="&#x09;" horiz-adv-x="432" />
<glyph unicode="&#xa0;" horiz-adv-x="432" />
<glyph unicode="!" horiz-adv-x="585" d="M160 121q0 53 35.5 92t97.5 39t97.5 -39t35.5 -92q0 -54 -35.5 -93.5t-97.5 -39.5t-97.5 39.5t-35.5 93.5zM195 1354v141h196v-141l-63 -920h-66z" />
<glyph unicode="&#x22;" horiz-adv-x="708" d="M139 1509h152l-31 -493h-100zM426 1509h149l-28 -493h-101z" />
<glyph unicode="#" horiz-adv-x="1132" d="M90 410l10 127h185l59 393h-176l8 125h195l82 407h153l-80 -407h236l69 407h130l-66 -407h137l-14 -123h-148l-65 -395h145l-10 -127h-154l-86 -433h-151l84 433h-236l-80 -433h-129l74 433h-172zM422 537h235l80 395h-235z" />
<glyph unicode="$" horiz-adv-x="1226" d="M94 100q78 -46 202.5 -82t283.5 -41v-172h96v172q219 11 344 125t125 330q0 90 -25.5 158.5t-75 116.5t-114.5 79t-152 52l-102 24v508q105 -4 202.5 -31t159.5 -61l52 139q-168 103 -414 109v168h-96v-170q-228 -11 -356 -113.5t-128 -300.5q0 -277 336 -360l148 -37 v-582q-226 11 -435 113zM276 1120q0 232 304 250v-483l-82 18q-111 27 -166.5 78.5t-55.5 136.5zM676 131v557l51 -12q136 -34 188 -93.5t52 -156.5q0 -280 -289 -295h-2z" />
<glyph unicode="%" horiz-adv-x="1875" d="M90 1126q0 169 93.5 277t258.5 108q168 0 261.5 -107t93.5 -278q0 -167 -94.5 -276t-260.5 -109q-167 0 -259.5 108.5t-92.5 276.5zM217 1126q0 -115 60 -195.5t165 -80.5q107 0 167.5 81.5t60.5 194.5q0 115 -61 196t-167 81q-72 0 -124.5 -40.5t-76.5 -102t-24 -134.5z M403 0l928 1495h144l-930 -1495h-142zM1081 369q0 168 94 276.5t259 108.5q168 0 260 -106.5t92 -278.5q0 -168 -93 -275.5t-259 -107.5q-168 0 -260.5 107.5t-92.5 275.5zM1206 369q0 -115 61 -196t167 -81q72 0 124.5 40.5t76.5 102t24 134.5q0 115 -60 195.5t-165 80.5 q-107 0 -167.5 -81.5t-60.5 -194.5z" />
<glyph unicode="&#x26;" horiz-adv-x="1476" d="M104 395q0 154 86.5 259t249.5 186q-47 52 -71.5 82t-51.5 72t-38 83t-11 88q0 150 105.5 237t283.5 87q106 0 192.5 -32.5t142 -104t55.5 -170.5q0 -64 -26 -120t-74.5 -102t-106 -83t-133.5 -72l401 -430q76 78 141 223l121 -90q-65 -140 -158 -252l181 -215 q-104 -37 -156 -51l-137 153q-208 -166 -479 -166q-252 0 -384.5 111t-132.5 307zM281 406q0 -128 92 -201.5t256 -73.5q200 0 356 127q-75 80 -220 233.5t-220 233.5q-126 -65 -195 -140.5t-69 -178.5zM455 1165q0 -68 36.5 -125t112.5 -131q61 31 98 53t77.5 54.5 t59.5 70.5t19 84q0 83 -58 129t-141 46q-93 0 -148.5 -48t-55.5 -133z" />
<glyph unicode="'" horiz-adv-x="391" d="M123 1509h153l-28 -493h-105z" />
<glyph unicode="(" horiz-adv-x="610" d="M125 637q0 432 246 872h147q-227 -416 -227 -868q0 -212 61 -440t168 -418h-147q-112 191 -180 413.5t-68 440.5z" />
<glyph unicode=")" horiz-adv-x="610" d="M92 -217q106 193 168 419.5t62 438.5q0 446 -230 868h150q245 -450 245 -872q0 -218 -68 -438t-181 -416h-146z" />
<glyph unicode="*" horiz-adv-x="1079" d="M88 1083l350 -125l-264 -342l135 -94l228 365l235 -365l135 94l-266 342l352 125l-71 160l-322 -180l29 426h-178l32 -426l-323 180z" />
<glyph unicode="+" horiz-adv-x="1079" d="M100 512h383v-432h135v432h371v133h-368v420h-134v-420h-387v-133z" />
<glyph unicode="," horiz-adv-x="507" d="M135 -293l21 522h211l-125 -522h-107z" />
<glyph unicode="-" horiz-adv-x="684" d="M88 520v144h510v-144h-510z" />
<glyph unicode="." horiz-adv-x="493" d="M127 121q0 -54 35.5 -93.5t97.5 -39.5t97.5 39.5t35.5 93.5q0 53 -35.5 92t-97.5 39t-97.5 -39t-35.5 -92z" />
<glyph unicode="/" horiz-adv-x="950" d="M49 -217l676 1683h147l-677 -1683h-146z" />
<glyph unicode="0" horiz-adv-x="1239" d="M109 752q0 234 55 405t172 270t287 99t286 -99t170 -270t54 -405q0 -134 -17.5 -249t-57 -213t-98 -166.5t-144.5 -107.5t-193 -39q-133 0 -233.5 59t-161 165t-90 244t-29.5 307zM301 758q0 -183 36.5 -323.5t110 -223t175.5 -82.5t175 82.5t108.5 223t35.5 323.5 q0 180 -35.5 317t-108.5 217t-175 80t-175.5 -80t-110 -217t-36.5 -317z" />
<glyph unicode="1" horiz-adv-x="663" d="M51 1343q146 65 273 152h159v-1495h-178v1311q-137 -88 -217 -113z" />
<glyph unicode="2" horiz-adv-x="1114" d="M90 164l516 573q95 105 144.5 191.5t50.5 169.5v10q0 125 -68.5 192.5t-195.5 67.5q-214 0 -334 -123l-60 150q141 131 406 131q203 0 323.5 -111.5t120.5 -296.5v-6q-1 -132 -66 -247.5t-200 -260.5l-422 -450h694l-12 -154h-874z" />
<glyph unicode="3" horiz-adv-x="1101" d="M104 92l58 146q140 -109 332 -109q150 0 239.5 74.5t89.5 208.5q0 78 -26 135t-68.5 90.5t-109.5 53t-135 26t-160 6.5v147q55 0 97.5 2t90.5 9t84 18.5t70 31t56 47t35 67t13 88.5q0 239 -274 239q-199 0 -334 -106l-58 145q148 115 431 115q84 0 160.5 -24.5 t136.5 -70.5t95.5 -117.5t35.5 -158.5q0 -141 -69 -230.5t-194 -127.5q139 -31 219 -131.5t80 -255.5q0 -197 -141 -315t-362 -118q-135 0 -240 35t-152 80z" />
<glyph unicode="4" horiz-adv-x="1210" d="M109 371v153l657 971h186v-979h185l-15 -145h-170v-371h-168v371h-675zM285 516h499v754z" />
<glyph unicode="5" horiz-adv-x="1175" d="M121 115l65 141q150 -117 342 -117q163 0 259 93t96 243q0 134 -80 217.5t-228 83.5q-149 0 -237 -98l-139 18l39 799h766l-17 -164h-608q-2 -72 -7 -235.5t-7 -235.5q116 74 243 74q147 0 252 -62t155 -163.5t50 -231.5q0 -226 -146 -363t-397 -137q-126 0 -229 37 t-172 101z" />
<glyph unicode="6" horiz-adv-x="1198" d="M102 471q0 163 60 292.5t217 326.5q38 48 120 148t145 176l63 75h231l-526 -629q112 62 225 62q126 0 233.5 -60t172.5 -169.5t65 -243.5q0 -203 -138.5 -337.5t-363.5 -134.5q-155 0 -271 67.5t-174.5 178.5t-58.5 248zM293 453q0 -89 32.5 -160.5t103.5 -117.5t171 -46 q148 0 233 91t85 226q0 142 -85 233t-233 91q-156 0 -231.5 -88.5t-75.5 -228.5z" />
<glyph unicode="7" horiz-adv-x="1050" d="M100 1341l11 154h868v-135l-537 -1360h-182l514 1341h-674z" />
<glyph unicode="8" horiz-adv-x="1181" d="M102 385q0 144 82.5 249.5t229.5 153.5q-133 47 -205 137.5t-72 223.5q0 177 127 277t330 100t326.5 -99.5t123.5 -277.5q0 -263 -253 -361q135 -48 211.5 -154t76.5 -249q0 -129 -66.5 -223t-175 -139.5t-243.5 -45.5q-136 0 -246 45.5t-178 139.5t-68 223zM279 397 q0 -123 89 -195.5t226 -72.5q136 0 222.5 72t86.5 196q0 119 -83.5 195.5t-225.5 109.5q-143 -33 -229 -110t-86 -195zM315 1151q0 -234 279 -297q274 62 274 297q0 104 -79.5 165.5t-194.5 61.5t-197 -62t-82 -165z" />
<glyph unicode="9" horiz-adv-x="1163" d="M86 1053q0 203 140.5 338t365.5 135q155 0 269.5 -65t171.5 -173.5t57 -245.5q0 -144 -48.5 -259t-169.5 -279q-43 -57 -143.5 -183t-180.5 -223l-79 -98h-219l530 657q-106 -59 -225 -59q-126 0 -232.5 55.5t-171.5 160.5t-65 239zM274 1057q0 -140 84 -224.5t234 -84.5 q157 0 233 87t76 226q0 137 -77.5 224t-225.5 87q-149 0 -236.5 -90.5t-87.5 -224.5z" />
<glyph unicode=":" horiz-adv-x="493" d="M145 -25v234h207v-234h-207zM145 893v231h207v-231h-207z" />
<glyph unicode=";" horiz-adv-x="516" d="M137 -309l58 506h182l-125 -506h-115zM174 893v231h207v-231h-207z" />
<glyph unicode="&#x3c;" horiz-adv-x="1177" d="M102 547v94l959 508v-168l-766 -385l762 -381v-166z" />
<glyph unicode="=" horiz-adv-x="1284" d="M143 741v150h1004v-150h-1004zM145 305v148h1002v-148h-1002z" />
<glyph unicode="&#x3e;" horiz-adv-x="1181" d="M127 61v168l764 369l-762 399v162l956 -520v-94z" />
<glyph unicode="?" horiz-adv-x="864" d="M74 1427q121 97 329 97q163 0 263 -85.5t100 -238.5q0 -77 -22.5 -150t-63 -142.5t-84 -135t-98.5 -157.5t-95 -181h-86q0 64 29.5 147t71.5 163t83.5 158t71 154t29.5 130q-1 95 -61 140.5t-164 45.5q-137 0 -258 -80zM242 121q0 53 35.5 92t97.5 39t97.5 -39t35.5 -92 q0 -54 -35.5 -93.5t-97.5 -39.5t-97.5 39.5t-35.5 93.5z" />
<glyph unicode="@" horiz-adv-x="1787" d="M100 721q0 166 64 315t172.5 256.5t259.5 170.5t319 63q128 0 244.5 -30.5t212.5 -90t167 -142t110 -191t39 -232.5q0 -100 -29.5 -189t-78.5 -152.5t-111 -109.5t-128 -69t-129 -23q-161 0 -184 158q-97 -140 -237 -140q-109 0 -178.5 85.5t-69.5 230.5q0 80 14.5 152.5 t46.5 137.5t78 112.5t114.5 75.5t151.5 28q126 0 301 -62q-12 -60 -35 -168t-35.5 -168t-23 -123.5t-10.5 -91.5q0 -106 88 -106q49 0 106 33.5t106.5 89t82.5 136.5t33 165q0 172 -85 301t-231.5 195.5t-333.5 66.5q-185 0 -341.5 -90t-248.5 -247.5t-92 -346.5 q0 -154 52 -283t142 -214t210 -132t256 -47q283 0 454 139l70 -88q-92 -85 -228 -128.5t-298 -43.5q-165 0 -309.5 57t-250 159t-166.5 252.5t-61 328.5zM676 621q0 -83 36 -131t101 -48q42 0 76.5 22t60 60.5t46 89.5t35.5 110.5t27.5 122.5t24.5 126q3 16 4 24 q-19 10 -61 16.5t-74 6.5q-60 0 -108.5 -23.5t-79 -62.5t-51 -91.5t-29 -107.5t-8.5 -114z" />
<glyph unicode="A" horiz-adv-x="1308" d="M6 0l557 1495h213l527 -1495h-181l-164 473h-593l-179 -473h-180zM420 610h479l-227 713zM1176 10z" />
<glyph unicode="B" horiz-adv-x="1284" d="M147 0v1495h437q280 0 423.5 -86.5t143.5 -278.5q0 -116 -52.5 -205t-160.5 -124q90 -20 153.5 -80t92 -136t28.5 -159q0 -426 -542 -426h-523zM324 139h313q198 0 296.5 70t98.5 219q0 141 -88.5 215t-255.5 74h-364v-578zM324 850h354q59 0 105 9.5t90.5 34t69 76 t24.5 126.5q0 66 -20 113t-53 74.5t-88 43t-111.5 20.5t-137.5 5h-233v-502z" />
<glyph unicode="C" horiz-adv-x="1288" d="M98 745q0 166 47.5 308.5t136.5 247.5t225.5 165t305.5 60q272 0 438 -137l-63 -136q-67 53 -163 86t-206 33q-131 0 -234.5 -51t-167 -138.5t-96 -199t-32.5 -238.5q0 -98 18 -186t59 -167.5t102.5 -137t154 -91.5t206.5 -34q106 0 199 34.5t160 88.5l57 -146 q-144 -129 -430 -129q-171 0 -309 60t-226 165t-135 244t-47 299zM639 0z" />
<glyph unicode="D" horiz-adv-x="1509" d="M147 0v1495h371q161 0 292 -23t245 -77.5t191 -140.5t121 -216.5t44 -300.5q0 -183 -57 -324.5t-162 -231.5t-249 -135.5t-322 -45.5h-474zM324 156h315q280 0 432 145.5t152 431.5q0 139 -32 244t-89.5 173.5t-144 111.5t-187.5 61t-229 18h-217v-1185zM762 745z" />
<glyph unicode="E" horiz-adv-x="1146" d="M147 0v1495h881l-12 -154h-692v-495h663v-154h-663v-536h735l-17 -156h-895zM1026 10z" />
<glyph unicode="F" horiz-adv-x="1024" d="M147 0v1495h828l-14 -154h-637v-503h616v-144h-616v-694h-177z" />
<glyph unicode="G" horiz-adv-x="1431" d="M100 745q0 -156 45.5 -293.5t132 -244t224 -168.5t309.5 -62q145 0 262 33t248 113v641h-512l-12 -150h370v-395q-55 -34 -152.5 -62t-185.5 -28q-111 0 -201.5 32.5t-152 88.5t-104 134.5t-61.5 168.5t-19 192q0 101 19 192t61.5 171t104 138.5t152 92t201.5 33.5 q103 0 209 -38t172 -91l66 137q-182 146 -461 146q-175 0 -313.5 -62.5t-225 -171t-131.5 -248t-45 -299.5zM717 0z" />
<glyph unicode="H" horiz-adv-x="1464" d="M147 0v1495h177v-647h817v647h178v-1495h-178v696h-817v-696h-177zM733 745z" />
<glyph unicode="I" horiz-adv-x="507" d="M164 0v1495h176v-1495h-176zM459 10z" />
<glyph unicode="J" horiz-adv-x="548" d="M-41 -72h76q53 0 89.5 13t56 32t30 56t12.5 67.5t2 83.5v1315h178v-1253q0 -73 -3 -122.5t-12 -101.5t-26.5 -85t-45.5 -63t-69.5 -47t-98.5 -26.5t-132 -9.5h-34zM274 1489z" />
<glyph unicode="K" horiz-adv-x="1226" d="M145 0v1495h179v-725l637 725h233l-612 -696l682 -799h-224l-600 702l-116 -100v-602h-179zM614 0z" />
<glyph unicode="L" horiz-adv-x="978" d="M147 0v1495h179v-1339h655l-10 -156h-824zM479 0z" />
<glyph unicode="M" horiz-adv-x="1783" d="M150 0v1495h192l557 -1149l553 1149h184v-1495h-166v1176l-473 -994h-200l-482 1000v-1182h-165z" />
<glyph unicode="N" horiz-adv-x="1486" d="M147 0v1495h195l836 -1241v1241h163v-1495h-196l-832 1239v-1239h-166zM743 0z" />
<glyph unicode="O" horiz-adv-x="1656" d="M98 745q0 233 85.5 408.5t251.5 274t394 98.5t394 -98.5t251 -274t85 -408.5q0 -165 -47.5 -305t-137.5 -243.5t-229.5 -161.5t-315.5 -58q-141 0 -259.5 38t-205 106.5t-147 164t-90 211.5t-29.5 248zM289 745q0 -132 32 -242t96 -194.5t169 -132t243 -47.5t243 47.5 t168.5 132t95.5 194.5t32 242q0 288 -138 457.5t-401 169.5q-264 0 -402 -168.5t-138 -458.5zM829 1489z" />
<glyph unicode="P" horiz-adv-x="1157" d="M145 0v1495h484q87 0 161.5 -14t138 -44.5t107.5 -76.5t69 -113.5t25 -152.5q0 -87 -16 -156t-55 -129t-102.5 -99.5t-161.5 -62t-228 -22.5q-66 0 -243 14v-639h-179zM324 780q192 -2 260 -2q71 0 127 10t94 25.5t65.5 40.5t42.5 50t23.5 59t11 62t2.5 65 q0 126 -85.5 186.5t-231.5 60.5h-309v-557z" />
<glyph unicode="Q" horiz-adv-x="1656" d="M98 745q0 233 85.5 408.5t251.5 274t394 98.5t394 -98.5t251 -274t85 -408.5q0 -165 -47.5 -305t-137.5 -243.5t-229.5 -161.5t-315.5 -58q-141 0 -259.5 38t-205 106.5t-147 164t-90 211.5t-29.5 248zM289 745q0 -132 32 -242t96 -194.5t169 -132t243 -47.5t243 47.5 t168.5 132t95.5 194.5t32 242q0 288 -138 457.5t-401 169.5q-264 0 -402 -168.5t-138 -458.5zM829 1489zM942 -16l14 6q15 7 35 15.5t44 16t43 9.5q5 1 9 1q13 0 23 -5q43 -94 138 -216.5t136 -160.5l-116 -119q-49 49 -159.5 194.5t-166.5 258.5z" />
<glyph unicode="R" horiz-adv-x="1337" d="M147 0v1495h474q96 0 167 -5.5t141 -20t117 -42t84 -70t54.5 -105.5t17.5 -146q0 -143 -70.5 -243.5t-211.5 -137.5q-1 0 18.5 -33.5t48 -85t43.5 -84.5l242 -522h-201l-203 465q-80 179 -106 223q-58 -4 -172 -4l-266 8v-692h-177zM324 842l356 -4h9q127 0 201 29 q78 30 108 86t30 149q0 121 -70.5 180t-236.5 59h-397v-499zM641 0z" />
<glyph unicode="S" horiz-adv-x="1226" d="M94 100q81 -49 220.5 -86t316.5 -37q238 0 376 114.5t138 340.5q0 90 -25.5 158.5t-75 116.5t-114.5 79t-152 52l-280 67q-111 27 -166.5 78.5t-55.5 136.5q0 252 363 252q112 0 221 -28.5t178 -65.5l52 139q-79 49 -198 79t-251 30q-256 0 -400.5 -102.5t-144.5 -313.5 q0 -277 336 -360l295 -74q136 -34 188 -93.5t52 -156.5q0 -297 -326 -297q-264 0 -496 115zM614 0z" />
<glyph unicode="T" horiz-adv-x="1064" d="M-2 1341v154h1071v-154h-448v-1341h-177v1341h-446zM532 745z" />
<glyph unicode="U" horiz-adv-x="1384" d="M127 522v973h176v-967q0 -218 90.5 -310.5t294.5 -92.5q203 0 294 93t91 310v967h176v-973q0 -101 -16.5 -181t-56 -149.5t-102.5 -116t-160.5 -72.5t-225.5 -26t-225 26t-160 72.5t-103 116t-56.5 149.5t-16.5 181zM1247 10z" />
<glyph unicode="V" horiz-adv-x="1263" d="M-10 1495h190l453 -1300q297 857 457 1300h186l-549 -1495h-190z" />
<glyph unicode="W" horiz-adv-x="2129" d="M-27 1495h183l430 -1298l391 1245h209l354 -1247l436 1300h183l-514 -1495h-209l-353 1225l-399 -1225h-209zM1067 1489z" />
<glyph unicode="X" horiz-adv-x="1298" d="M10 0l527 780l-494 715h213l403 -602l431 602h190l-500 -715l508 -780h-205l-430 680l-446 -680h-197z" />
<glyph unicode="Y" horiz-adv-x="1241" d="M0 1495h186l424 -717l441 717h192l-557 -881v-614h-176v614zM621 1489z" />
<glyph unicode="Z" horiz-adv-x="1198" d="M90 0v139l832 1202h-797v154h1032v-123l-842 -1216h834l-12 -156h-1047zM600 1489z" />
<glyph unicode="[" horiz-adv-x="677" d="M121 -260v1765h448v-125h-270v-1519h270v-121h-448z" />
<glyph unicode="\" horiz-adv-x="933" d="M82 1466h147l652 -1587h-146z" />
<glyph unicode="]" horiz-adv-x="677" d="M109 -139h272v1519h-272v125h448v-1765h-448v121z" />
<glyph unicode="^" horiz-adv-x="1202" d="M90 627l457 932h104l461 -932h-133l-383 747l-369 -747h-137z" />
<glyph unicode="_" horiz-adv-x="1251" d="M150 -156h952v-137h-952v137z" />
<glyph unicode="`" horiz-adv-x="641" d="M86 1638h250l184 -387h-112zM303 1098z" />
<glyph unicode="a" horiz-adv-x="1044" d="M86 274q0 191 172 276q100 50 324 84q20 3 65 9l111 12v125q0 102 -52.5 152.5t-164.5 50.5q-89 0 -181 -20.5t-161 -53.5l-47 131q67 36 170.5 60t214.5 24q86 0 153 -15.5t121.5 -50.5t83.5 -98.5t29 -152.5v-807h-138l-24 121q-129 -146 -342 -146q-144 0 -239 76.5 t-95 222.5zM254 281q0 -88 49.5 -131.5t132.5 -43.5q81 0 175.5 45.5t146.5 116.5v271q-99 -15 -101 -15q-237 -31 -320 -80t-83 -163zM932 10z" />
<glyph unicode="b" horiz-adv-x="1169" d="M119 0h166v164q51 -89 142 -139t202 -50q113 0 203 46.5t146.5 127.5t86 186t29.5 226q0 112 -30 212t-86 179t-145 125.5t-200 46.5q-98 0 -192 -47.5t-154 -146.5v579l-168 -18v-1491zM285 551q0 192 95 312t241 122q67 0 120.5 -26.5t86.5 -69t55 -101t30.5 -116.5 t8.5 -121q0 -64 -9 -123t-31 -117.5t-56 -101.5t-88 -69.5t-122 -26.5q-111 0 -187.5 61t-110 157t-33.5 220z" />
<glyph unicode="c" horiz-adv-x="952" d="M78 549q0 -92 21.5 -177t66 -157t106.5 -125.5t148 -84t186 -30.5q85 0 165 26t132 75l-41 119q-116 -82 -248 -82q-163 0 -264.5 121t-101.5 311t101.5 315t252.5 125q142 0 258 -76l43 119q-46 45 -125.5 70.5t-173.5 25.5q-119 0 -219.5 -47t-166.5 -127 t-102.5 -183.5t-37.5 -217.5zM473 0z" />
<glyph unicode="d" horiz-adv-x="1171" d="M78 561q0 -172 54.5 -303.5t161.5 -207t253 -75.5q110 0 199.5 54.5t138.5 142.5l20 -172h150v1509l-168 -18v-553q-42 86 -138 136t-208 50q-136 0 -242.5 -76t-163.5 -204t-57 -283zM250 557q0 79 17 150.5t51.5 133.5t95.5 99t141 37q85 0 150 -33t104 -92 t58.5 -134.5t19.5 -166.5q0 -187 -84.5 -306.5t-245.5 -119.5q-82 0 -143.5 36.5t-96 99t-51 137t-16.5 159.5zM586 549z" />
<glyph unicode="e" horiz-adv-x="1083" d="M78 551q0 -265 135 -420.5t369 -155.5q254 0 405 131l-51 123q-162 -110 -348 -110q-148 0 -243 108.5t-95 290.5h751q0 9 1.5 38.5t1.5 37.5q0 243 -119.5 386.5t-323.5 143.5q-215 -6 -349 -166t-134 -407zM256 635q13 161 96.5 256.5t208.5 95.5q127 0 204 -91 t77 -261h-586zM977 10z" />
<glyph unicode="f" horiz-adv-x="638" d="M39 981v117h162v32q2 124 20 201t61.5 123.5t107.5 64t167 17.5h74l20 -127h-94q-53 0 -86.5 -10t-54.5 -27t-31 -54.5t-13 -77.5t-3 -110v-32h247v-117h-247v-981h-168v981h-162z" />
<glyph unicode="g" horiz-adv-x="1163" d="M80 545q0 119 29 222t86.5 183.5t152 127t215.5 46.5q203 0 332 -174v148h162v-1018q0 -70 -3.5 -122.5t-17 -116.5t-36.5 -110.5t-64.5 -92.5t-99 -75t-142.5 -47t-192 -18h-178l-23 152h205q73 0 129.5 10t97 27.5t68.5 47t45.5 62t27 81t12.5 95t3 111.5v96 q-60 -87 -139 -133.5t-199 -46.5q-94 0 -173 32.5t-133 86.5t-92 125t-55.5 147.5t-17.5 153.5zM252 555q0 -73 19.5 -144t57 -132t101.5 -98.5t145 -37.5q85 0 149 30t100 83t53.5 118t17.5 142v82q0 81 -18 148.5t-55 121t-99 83.5t-145 30q-68 0 -124 -26t-93 -69 t-62 -99t-36 -114.5t-11 -117.5zM584 1098z" />
<glyph unicode="h" horiz-adv-x="1110" d="M115 0h168v748q22 85 118.5 159t216.5 74q69 0 113 -21t68 -69.5t32.5 -112t8.5 -162.5v-616h168v664q0 222 -83 341t-251 119q-248 0 -391 -176v561l-168 -18v-1491zM555 549z" />
<glyph unicode="i" horiz-adv-x="464" d="M160 0v1098h168v-1098h-168zM160 1298v197h168v-197h-168z" />
<glyph unicode="j" horiz-adv-x="444" d="M-78 -350h53q30 0 54 2.5t43 6.5t32.5 13.5t23.5 18t16 25t10 30t5.5 38t2 43.5t0.5 52v1219h168v-1237q0 -105 -13.5 -170.5t-50.5 -111t-101 -63.5t-167 -18h-53zM162 1298v197h168v-197h-168z" />
<glyph unicode="k" horiz-adv-x="1005" d="M115 0v1491l168 18v-876l487 465h227l-469 -457l502 -641h-215l-414 563l-118 -102v-461h-168zM498 0z" />
<glyph unicode="l" horiz-adv-x="548" d="M143 469v1022l168 18v-1079q0 -69 1 -107.5t5 -79.5t11.5 -60.5t21 -37t33.5 -23t49 -5.5q14 0 90 6l10 -131q-68 -12 -112 -12q-58 0 -100 9t-72.5 22.5t-50 47t-30.5 63.5t-16 92t-6.5 112t-1.5 143zM553 1098z" />
<glyph unicode="m" horiz-adv-x="1771" d="M111 1098q0 -9 2 -117.5t2 -161.5v-819h168v750q30 91 123.5 160t214.5 69q49 0 85 -17.5t58.5 -48.5t36.5 -78.5t19 -101.5t5 -125v-608h168v731q39 112 123 180t187 68q31 0 56 -6t44 -16t33.5 -28.5t24.5 -37t17.5 -47.5t11.5 -55t6 -65t2.5 -71.5t0.5 -79.5v-573h168 v696q0 428 -338 428q-247 0 -379 -202q-37 107 -113.5 154.5t-195.5 47.5q-107 0 -204 -48t-167 -142l-14 164h-145z" />
<glyph unicode="n" horiz-adv-x="1110" d="M111 1098h145l14 -162q64 87 170.5 137.5t221.5 50.5q179 0 262.5 -116.5t83.5 -350.5v-657h-168v551q0 70 -1.5 114.5t-6 95t-13.5 80.5t-24.5 60t-38.5 45.5t-55.5 25t-75.5 9.5q-66 0 -127 -22t-103.5 -57t-72 -74.5t-39.5 -77.5v-750h-168v831zM555 0z" />
<glyph unicode="o" horiz-adv-x="1177" d="M78 547q0 118 35 222.5t100 183.5t164.5 125t220.5 46q123 0 220 -45.5t158.5 -124.5t93.5 -182t32 -223q0 -115 -33.5 -218t-96 -182.5t-160.5 -126.5t-218 -47q-121 0 -220 45t-163 123t-98.5 181.5t-34.5 222.5zM250 545q0 -85 21 -161t62.5 -137.5t109.5 -97.5 t155 -36q86 0 151.5 36t103.5 98t56.5 137.5t18.5 162.5q0 91 -18 167t-55.5 138.5t-104 97.5t-156.5 35q-85 0 -152.5 -37t-108.5 -99.5t-62 -140t-21 -163.5zM590 1098z" />
<glyph unicode="p" horiz-adv-x="1165" d="M123 -459v1557h158l10 -148q129 174 340 174q95 0 172 -31t130 -84.5t88.5 -128t52 -160.5t16.5 -183q0 -150 -54 -277t-160 -206t-245 -79q-108 0 -196.5 46t-143.5 139v-596zM289 549q0 -92 17.5 -167.5t53.5 -135.5t98.5 -93.5t145.5 -33.5q82 0 145 38.5t98.5 102.5 t53 137t17.5 152t-17.5 152.5t-53 137.5t-98.5 103t-145 39q-83 0 -145.5 -33.5t-98.5 -94t-53.5 -136.5t-17.5 -168z" />
<glyph unicode="q" horiz-adv-x="1171" d="M78 539q0 -112 29.5 -212.5t86 -179.5t145.5 -125.5t200 -46.5q114 0 202.5 51.5t141.5 143.5v-629l168 21v1536h-164v-160q-121 186 -336 186q-117 0 -209 -46.5t-149 -127.5t-86 -185.5t-29 -225.5zM250 551q0 79 15.5 150.5t49 135.5t96 102t146.5 38t148.5 -33.5 t103.5 -93t58.5 -135t19.5 -164.5q0 -90 -19 -165.5t-57.5 -135.5t-102.5 -93.5t-149 -33.5q-68 0 -122.5 25t-88.5 66t-57 98t-32 115.5t-9 123.5z" />
<glyph unicode="r" horiz-adv-x="653" d="M121 1098q0 -42 1 -125.5t1 -126.5v-846h168v643q0 130 80 215.5t227 85.5h41l-12 154h-31q-216 0 -322 -191l-12 191h-141zM330 0z" />
<glyph unicode="s" horiz-adv-x="935" d="M100 815q2 -108 66 -184t219 -119l145 -41q166 -47 166 -170v-10q-7 -85 -63.5 -130.5t-151.5 -45.5h-16q-98 0 -180 30t-131 62l-43 -129q55 -41 159.5 -72t221.5 -31q160 0 259 84t103 236v4q0 133 -69 210.5t-207 113.5l-152 41q-85 22 -121.5 59.5t-36.5 91.5 q0 83 59 129.5t152 46.5q142 0 281 -59l39 121q-139 71 -332 71q-89 -1 -160.5 -27.5t-115.5 -70.5t-67.5 -98t-23.5 -113zM467 0z" />
<glyph unicode="t" horiz-adv-x="690" d="M23 981l14 117h153l43 354l125 10v-364h291v-117h-291v-614q0 -155 29.5 -201.5t128.5 -46.5q7 0 137 10l15 -135q-175 -14 -191 -14q-57 0 -99.5 9t-73.5 24t-51.5 45t-33 62t-19 86.5t-8.5 106t-2 131.5v537h-167zM362 549z" />
<glyph unicode="u" horiz-adv-x="1097" d="M109 367v731h167v-733q0 -72 20 -122.5t58.5 -78t86 -39.5t110.5 -12q62 0 108.5 12.5t84.5 40t57.5 78t19.5 121.5v733h168v-731q0 -105 -35.5 -182.5t-97.5 -122.5t-138.5 -66t-166.5 -21q-72 0 -135 13t-120 42.5t-98 74t-65 111.5t-24 151zM989 10z" />
<glyph unicode="v" horiz-adv-x="1034" d="M0 1098h178l346 -914l328 914h178l-428 -1098h-170z" />
<glyph unicode="w" horiz-adv-x="1617" d="M14 1098h174l244 -875l291 875h197l278 -871l236 871h170l-328 -1098h-166l-293 928l-305 -928h-170zM811 1098z" />
<glyph unicode="x" horiz-adv-x="1040" d="M25 0l401 555l-391 543h192l297 -416l299 416h195l-393 -545l393 -553h-182l-310 438l-309 -438h-192z" />
<glyph unicode="y" horiz-adv-x="1011" d="M4 1098l426 -1075q-31 -92 -51.5 -145.5t-47 -100.5t-48.5 -68t-59.5 -36.5t-76 -19t-102.5 -3.5h-29l21 -152h51q76 0 138.5 14.5t111 45t85.5 67.5t68.5 92.5t54.5 108.5t48 127l399 1145h-178q-203 -630 -289 -891l-346 891h-176zM510 1098z" />
<glyph unicode="z" horiz-adv-x="860" d="M80 965h530l-524 -826v-139h737v135h-551l531 830v133h-723v-133zM436 1098z" />
<glyph unicode="{" horiz-adv-x="688" d="M88 614v150h62q29 0 50.5 11t34 33.5t21 45.5t11.5 59.5t4 62t1 66.5v283q0 156 72 223.5t234 67.5v-137q-27 0 -47 -2t-36 -10t-26 -15.5t-17.5 -26t-11 -33t-5.5 -45.5t-2.5 -55t-0.5 -69v-236q0 -92 -32 -175.5t-113 -123.5q81 -40 113 -123.5t32 -175.5v-233 q0 -45 0.5 -69t2.5 -55t5.5 -45.5t11 -33t17.5 -26t26 -15.5t36 -10t47 -2v-138q-162 0 -234 67.5t-72 223.5v283q0 41 -1 66.5t-4 62t-11.5 59.5t-21 45.5t-34 33.5t-50.5 11h-62z" />
<glyph unicode="|" horiz-adv-x="468" d="M160 -303v1907h149v-1907h-149z" />
<glyph unicode="}" horiz-adv-x="698" d="M119 -100q27 0 47 2.5t36 10t26.5 15t17.5 25.5t11 33t6 45.5t2.5 55t0.5 69.5v233q0 92 32.5 175.5t113.5 123.5q-81 40 -113.5 123.5t-32.5 175.5v236q0 45 -0.5 69.5t-2.5 55t-6 45.5t-11 33t-17.5 25.5t-26.5 15t-36 10t-47 2.5v137q162 0 234.5 -67.5t72.5 -223.5 v-283q0 -47 1.5 -79.5t9 -73t20 -65.5t36.5 -42.5t58 -17.5h59v-150h-59q-34 0 -58 -17.5t-36.5 -42.5t-20 -65.5t-9 -73t-1.5 -79.5v-283q0 -156 -72.5 -223.5t-234.5 -67.5v138z" />
<glyph unicode="~" horiz-adv-x="1339" d="M137 473q22 121 98.5 204t198.5 83q53 0 127.5 -27t136.5 -59t125 -59t95 -27q65 0 113 56t67 134l110 -41q-26 -136 -99.5 -215.5t-193.5 -79.5q-52 0 -144.5 43t-186 86t-148.5 43q-77 0 -128.5 -58t-67.5 -140z" />
<glyph unicode="&#xa1;" horiz-adv-x="585" d="M160 1374q0 54 35.5 93.5t97.5 39.5t97.5 -39.5t35.5 -93.5q0 -53 -35.5 -92t-97.5 -39t-97.5 39t-35.5 92zM195 0v141l63 920h66l67 -920v-141h-196z" />
<glyph unicode="&#xa2;" horiz-adv-x="1079" d="M102 748q0 -220 121.5 -383t325.5 -189v-170h88v168q140 6 293 90l-41 107q-134 -64 -252 -64v879q114 -3 250 -74l43 119q-146 89 -293 92v180h-88v-186q-132 -20 -234 -100.5t-157 -202.5t-56 -266zM272 745q0 159 73.5 284t203.5 149v-863q-88 17 -152.5 82.5 t-94.5 155.5t-30 192z" />
<glyph unicode="&#xa3;" horiz-adv-x="1126" d="M102 707v143h174v86q0 73 4 130.5t15.5 121t31.5 111t53.5 92t79 73t111 45.5t146.5 17q227 0 352 -176l-94 -109q-57 67 -117 99t-141 32q-264 0 -264 -364v-158h399v-143h-399v-177q0 -271 -105 -378q83 10 88 10h615l-13 -162h-903l-22 137q96 51 129.5 127t33.5 203 v240h-174z" />
<glyph unicode="&#xa4;" horiz-adv-x="1296" d="M72 254l235 219q-92 119 -92 268q0 154 92 269l-235 219l53 51l233 -217q126 113 291 113q170 0 295 -115l238 219l45 -55l-234 -217q92 -119 92 -267q0 -147 -92 -266l234 -217l-45 -55l-238 219q-127 -117 -295 -117q-165 0 -293 115l-231 -217zM305 741 q0 -143 101 -244.5t243 -101.5q143 0 244.5 101.5t101.5 244.5q0 142 -101.5 243t-244.5 101t-243.5 -100.5t-100.5 -243.5z" />
<glyph unicode="&#xa5;" horiz-adv-x="1128" d="M35 1495h178l352 -621l361 621h170l-430 -727h348v-123h-375v-192h379v-123h-379v-330h-152v330h-391v123h391v192h-387v123h351z" />
<glyph unicode="&#xa6;" horiz-adv-x="448" d="M152 -301v641h149v-641h-149zM152 965v639h149v-639h-149z" />
<glyph unicode="&#xa7;" horiz-adv-x="976" d="M143 784q0 88 47 155.5t121 111.5q-69 53 -102 111.5t-33 148.5q0 145 102.5 221t272.5 76q109 0 221 -45l2 -158q-40 24 -104 39.5t-115 15.5q-102 0 -162.5 -35.5t-60.5 -109.5q0 -65 47.5 -111t177.5 -104q68 -33 113 -59.5t88 -63.5t63.5 -82t20.5 -100 q0 -83 -47 -154.5t-119 -124.5q71 -45 108 -100.5t37 -143.5q0 -101 -53.5 -175t-142.5 -110t-201 -36q-153 0 -256 53v162q132 -72 252 -72q114 0 181 48.5t67 119.5q0 28 -11 51t-24.5 38t-48 35t-57.5 30.5t-78 34.5l-89 38q-107 53 -162 124.5t-55 170.5zM299 799 q0 -31 12.5 -57t29.5 -45t52 -39t63.5 -33t80.5 -35q66 42 106.5 86t40.5 102q0 30 -12.5 55.5t-31.5 42.5t-47.5 33.5t-52.5 26.5t-55.5 23t-48.5 22q-64 -40 -100.5 -82t-36.5 -100z" />
<glyph unicode="&#xa8;" horiz-adv-x="768" d="M119 1253v213h153v-213h-153zM391 1098zM508 1253v213h156v-213h-156z" />
<glyph unicode="&#xa9;" horiz-adv-x="1839" d="M117 780q0 156 43.5 289t118.5 227t174.5 160t212 97.5t231.5 31.5q126 0 243.5 -32t219.5 -98t178 -160t120 -226.5t44 -288.5q0 -157 -43.5 -290t-119 -227.5t-177 -160.5t-218.5 -97.5t-243 -31.5q-119 0 -231.5 31.5t-213 98t-176 160t-119.5 227t-44 290.5zM229 782 q0 -148 45 -277.5t128.5 -227t212 -153.5t286.5 -56q132 0 244 36.5t192.5 101t137.5 153.5t84.5 195t27.5 224q0 147 -45 276t-129.5 227t-217.5 155t-298 57q-156 0 -284 -57t-211 -154.5t-128 -226t-45 -273.5zM434 784q0 225 134.5 370.5t351.5 145.5q178 0 307 -90 l-60 -96q-45 32 -116 50t-142 18q-85 0 -151 -32t-106.5 -87t-61.5 -125t-21 -150q0 -178 91.5 -289.5t269.5 -111.5q68 0 144 21t118 51l39 -107q-55 -35 -143 -58.5t-179 -23.5q-207 0 -341 145.5t-134 368.5z" />
<glyph unicode="&#xaa;" horiz-adv-x="1103" d="M184 244q0 -129 83 -198t210 -69q190 0 303 129l23 -106h121v711q0 280 -342 280q-100 0 -191.5 -19.5t-148.5 -51.5l41 -117q129 63 303 63q99 0 144.5 -44t45.5 -134v-108l-98 -13q-202 -30 -281 -56q-163 -55 -201 -177q-12 -41 -12 -90zM332 248q0 100 73.5 144.5 t280.5 72.5l90 10v-237q-46 -63 -128.5 -103.5t-153.5 -40.5q-73 0 -117.5 38t-44.5 116zM930 8z" />
<glyph unicode="&#xab;" horiz-adv-x="980" d="M119 584l243 397h166l-258 -397l250 -402h-164zM463 584l262 397h139l-231 -397l225 -402h-135z" />
<glyph unicode="&#xac;" horiz-adv-x="1280" d="M115 709v151h1022v-604h-133v453h-889z" />
<glyph unicode="&#xad;" horiz-adv-x="1232" d="M133 0v147h977v-147h-977z" />
<glyph unicode="&#xae;" horiz-adv-x="1822" d="M117 780q0 156 43.5 289t118.5 227t174.5 160t212 97.5t231.5 31.5q126 0 243.5 -32t219.5 -98t178 -160t120 -226.5t44 -288.5q0 -157 -43.5 -290t-119 -227.5t-177 -160.5t-218.5 -97.5t-243 -31.5q-119 0 -231.5 31.5t-213 98t-176 160t-119.5 227t-44 290.5zM229 782 q0 -148 45 -277.5t128.5 -227t212 -153.5t286.5 -56q132 0 244 36.5t192.5 101t137.5 153.5t84.5 195t27.5 224q0 147 -45 276t-129.5 227t-217.5 155t-298 57q-156 0 -284 -57t-211 -154.5t-128 -226t-45 -273.5zM598 301v977h258q444 0 444 -270q0 -107 -61 -181t-199 -92 q33 -26 65 -69.5t56.5 -86.5t71.5 -127t88 -151h-150l-124 223q-32 57 -48.5 85.5t-40 59t-45.5 48.5h-182v-416h-133zM731 844h125q148 0 216.5 32.5t68.5 122.5q0 94 -63 122t-230 28h-117v-305z" />
<glyph unicode="&#xaf;" horiz-adv-x="1576" d="M279 2611v293h1026v-293h-1026zM792 2249z" />
<glyph unicode="&#xb0;" horiz-adv-x="815" d="M127 1239q0 129 84.5 222t198.5 93q115 0 197.5 -93t82.5 -222q0 -130 -83 -224.5t-197 -94.5t-198.5 94.5t-84.5 224.5zM238 1239q0 -81 50.5 -136.5t121.5 -55.5t121.5 55.5t50.5 136.5t-51 136t-121 55q-69 0 -120.5 -55.5t-51.5 -135.5z" />
<glyph unicode="&#xb1;" horiz-adv-x="1232" d="M133 0v147h977v-147h-977zM133 641v147h418v406h131v-406h426v-147h-422v-401h-133v401h-420z" />
<glyph unicode="&#xb2;" horiz-adv-x="835" d="M143 750l21 -109h481l10 121h-340q163 170 217 236q152 186 152 321q0 117 -76 174t-186 57q-60 0 -129 -18.5t-121 -54.5l47 -117q40 30 97 46.5t100 16.5q60 0 94.5 -32t34.5 -88q0 -25 -10 -54.5t-33.5 -67t-46.5 -69.5t-65.5 -82.5t-72.5 -84t-86 -96.5z" />
<glyph unicode="&#xb3;" horiz-adv-x="755" d="M102 1477l48 -117q90 63 202 63q50 0 93.5 -31t43.5 -89q0 -67 -51.5 -98t-134.5 -31h-43v-117h47q86 0 138.5 -51t52.5 -119q0 -61 -47 -97t-103 -36q-120 0 -190 63l-45 -96q81 -90 237 -90q116 0 197.5 69t81.5 191q0 74 -45 132.5t-121 90.5q151 58 151 203 q0 112 -73 172.5t-187 60.5q-67 0 -138.5 -20t-113.5 -53z" />
<glyph unicode="&#xb4;" horiz-adv-x="638" d="M127 1249l186 389h254l-325 -389h-115zM348 1098z" />
<glyph unicode="&#xb6;" horiz-adv-x="1067" d="M57 1257q0 57 15.5 102.5t40.5 77t64 54.5t80 36t95 21t101.5 10.5t107.5 2.5h377l-10 -131h-76v-1588h-115v1588h-219v-1588h-125v1114q-63 1 -120 17.5t-107 50.5t-79.5 94t-29.5 139z" />
<glyph unicode="&#xb7;" horiz-adv-x="958" d="M209 1354q0 109 72 189.5t200 80.5q129 0 201 -80t72 -190t-72 -190.5t-201 -80.5q-86 0 -149.5 40t-93 100.5t-29.5 130.5z" />
<glyph unicode="&#xb8;" horiz-adv-x="595" d="M115 -403l8 92q98 -27 133 -27q100 0 100 78q0 80 -98 80h-5q-5 -1 -12.5 -1.5t-13.5 -0.5l-28 -2l26 200h86l-12 -112h6q75 0 125.5 -40.5t50.5 -119.5q0 -83 -59 -126.5t-154 -43.5q-51 0 -153 23zM299 0z" />
<glyph unicode="&#xb9;" horiz-adv-x="612" d="M106 1423l29 -129q87 44 133 74v-719h140v889h-123q-75 -60 -179 -115z" />
<glyph unicode="&#xba;" horiz-adv-x="1083" d="M96 483q0 -141 51.5 -254.5t155.5 -182.5t244 -69q104 0 189 41t139 111.5t83 161t29 192.5q0 106 -28 197.5t-81.5 161t-138 109.5t-190.5 40q-140 0 -244.5 -70t-156.5 -184t-52 -254zM248 479q0 77 18.5 145.5t54 124t94 88.5t132.5 33q77 0 134.5 -31t90.5 -86 t48.5 -122.5t15.5 -147.5q0 -77 -16.5 -144t-49.5 -121.5t-90 -86t-131 -31.5q-76 0 -135 31.5t-94.5 85.5t-53.5 120.5t-18 141.5zM543 969z" />
<glyph unicode="&#xbb;" horiz-adv-x="1005" d="M125 182l231 404l-227 395h137l262 -395l-266 -404h-137zM492 182l251 404l-241 395h157l236 -395l-242 -404h-161z" />
<glyph unicode="&#xbc;" horiz-adv-x="1607" d="M106 1423l29 -129q87 44 133 74v-719h140v889h-123q-75 -60 -179 -115zM129 0l1079 1495h133l-1062 -1495h-150zM924 240v100l379 559h118v-541h95l10 -118h-107v-199h-106v199h-389zM1067 358h246v250v109z" />
<glyph unicode="&#xbd;" horiz-adv-x="1589" d="M106 1380l29 -129q87 44 133 74v-719h140v889h-123q-75 -60 -179 -115zM111 0l1077 1495h135l-1065 -1495h-147zM946 109l21 -109h481l10 121h-340q163 170 217 236q152 186 152 321q0 117 -76 174t-186 57q-60 0 -129 -18.5t-121 -54.5l47 -117q40 30 97 46.5t100 16.5 q60 0 94.5 -32t34.5 -88q0 -25 -10 -54.5t-33.5 -67t-46.5 -69.5t-65.5 -82.5t-72.5 -84t-86 -96.5z" />
<glyph unicode="&#xbe;" horiz-adv-x="1628" d="M102 1477l48 -117q90 63 202 63q50 0 93.5 -31t43.5 -89q0 -67 -51.5 -98t-134.5 -31h-43v-117h47q86 0 138.5 -51t52.5 -119q0 -61 -47 -97t-103 -36q-120 0 -190 63l-45 -96q81 -90 237 -90q116 0 197.5 69t81.5 191q0 74 -45 132.5t-121 90.5q151 58 151 203 q0 112 -73 172.5t-187 60.5q-67 0 -138.5 -20t-113.5 -53zM260 0l1077 1495h136l-1063 -1495h-150zM946 213v119l342 555h148v-561h94l10 -113h-104v-213h-140v213h-350zM1087 326h209v352z" />
<glyph unicode="&#xbf;" horiz-adv-x="864" d="M72 311q0 77 22.5 150t62.5 142.5t84 135t98.5 157.5t94.5 181h86q0 -64 -29.5 -147t-71 -162.5t-83 -157.5t-71 -154t-29.5 -130q1 -95 61 -141t164 -46q137 0 258 80l45 -135q-120 -96 -330 -96q-163 0 -262.5 85t-99.5 238zM330 1391q0 54 35.5 93.5t97.5 39.5 t97.5 -39.5t35.5 -93.5q0 -53 -35.5 -92t-97.5 -39t-97.5 39t-35.5 92z" />
<glyph unicode="&#xc0;" d="M6 0l557 1495h213l527 -1495h-181l-164 473h-593l-179 -473h-180zM420 610h479l-227 713zM451 2030h249l185 -388h-113zM668 1489z" />
<glyph unicode="&#xc1;" d="M6 0l557 1495h213l527 -1495h-181l-164 473h-593l-179 -473h-180zM420 610h479l-227 713zM446 1640l187 390h254l-326 -390h-115zM668 1489z" />
<glyph unicode="&#xc2;" d="M6 0l557 1495h213l527 -1495h-181l-164 473h-593l-179 -473h-180zM375 1642l186 388h213l187 -388h-134l-161 273l-160 -273h-131zM420 610h479l-227 713zM668 1489z" />
<glyph unicode="&#xc3;" d="M6 0l557 1495h213l527 -1495h-181l-164 473h-593l-179 -473h-180zM354 1681q0 110 45 165t127 55q55 0 119.5 -23.5t112.5 -47.5t61 -24h2q19 1 30 17.5t13.5 33t3.5 44.5h109q0 -220 -148 -220q-47 0 -160 49.5t-151 49.5h-2q-24 0 -38.5 -28t-16.5 -71h-107zM420 610 h479l-227 713zM666 1489z" />
<glyph unicode="&#xc4;" d="M6 0l557 1495h213l527 -1495h-181l-164 473h-593l-179 -473h-180zM395 1645v213h154v-213h-154zM420 610h479l-227 713zM668 1489zM784 1645v213h156v-213h-156z" />
<glyph unicode="&#xc5;" d="M6 0l557 1495h213l527 -1495h-181l-164 473h-593l-179 -473h-180zM420 610h479l-227 713zM473 1833q0 -83 58 -133.5t139 -50.5q78 0 135 50.5t57 133.5t-57.5 140t-136.5 57q-78 0 -136.5 -55.5t-58.5 -141.5zM569 1833q0 45 30 80t69 35q41 0 68.5 -34t27.5 -81 q0 -46 -29 -79.5t-67 -33.5q-45 0 -72 31t-27 82zM668 1489z" />
<glyph unicode="&#xc6;" horiz-adv-x="1865" d="M0 0h209l217 426h551l31 -426h804l15 158h-662l-41 567h590v158h-610l-33 454h617l12 158h-899zM512 590l387 772l55 -772h-442zM956 1489z" />
<glyph unicode="&#xc7;" horiz-adv-x="1282" d="M98 745q0 166 47.5 308.5t136.5 247.5t225.5 165t305.5 60q272 0 438 -137l-63 -136q-67 53 -163 86t-206 33q-131 0 -234.5 -51t-167 -138.5t-96 -199t-32.5 -238.5q0 -98 18 -186t59 -167.5t102.5 -137t154 -91.5t206.5 -34q106 0 199 34.5t160 88.5l57 -146 q-144 -129 -430 -129q-171 0 -309 60t-226 165t-135 244t-47 299zM459 -403l8 92q98 -27 133 -27q100 0 100 78q0 80 -98 80h-5q-5 -1 -12.5 -1.5t-13.5 -0.5l-28 -2l26 200h86l-12 -112h6q75 0 125.5 -40.5t50.5 -119.5q0 -83 -59 -126.5t-154 -43.5q-51 0 -153 23zM643 0z " />
<glyph unicode="&#xc8;" horiz-adv-x="1138" d="M147 0v1495h881l-12 -154h-692v-495h663v-154h-663v-536h735l-17 -156h-895zM354 2030h250l184 -388h-112zM571 1489z" />
<glyph unicode="&#xc9;" horiz-adv-x="1138" d="M147 0v1495h881l-12 -154h-692v-495h663v-154h-663v-536h735l-17 -156h-895zM350 1640l187 390h254l-326 -390h-115zM571 1489z" />
<glyph unicode="&#xca;" horiz-adv-x="1138" d="M147 0v1495h881l-12 -154h-692v-495h663v-154h-663v-536h735l-17 -156h-895zM276 1642l187 388h213l186 -388h-133l-162 273l-159 -273h-132zM569 1489z" />
<glyph unicode="&#xcb;" horiz-adv-x="1138" d="M147 0v1495h881l-12 -154h-692v-495h663v-154h-663v-536h735l-17 -156h-895zM299 1645v213h154v-213h-154zM571 1489zM688 1645v213h156v-213h-156z" />
<glyph unicode="&#xcc;" horiz-adv-x="507" d="M39 2030h250l184 -388h-113zM164 0v1495h176v-1495h-176zM256 1489z" />
<glyph unicode="&#xcd;" horiz-adv-x="507" d="M35 1640l186 390h254l-325 -390h-115zM164 0v1495h176v-1495h-176zM256 1489z" />
<glyph unicode="&#xce;" horiz-adv-x="507" d="M-39 1642l186 388h213l187 -388h-133l-162 273l-160 -273h-131zM164 0v1495h176v-1495h-176zM254 1489z" />
<glyph unicode="&#xcf;" horiz-adv-x="507" d="M-16 1645v213h153v-213h-153zM164 0v1495h176v-1495h-176zM256 1489zM373 1645v213h155v-213h-155z" />
<glyph unicode="&#xd0;" horiz-adv-x="1521" d="M29 696v135h536v-135h-536zM147 0v1495h371q161 0 292 -23t245 -77.5t191 -140.5t121 -216.5t44 -300.5q0 -183 -57 -324.5t-162 -231.5t-249 -135.5t-322 -45.5h-474zM324 156h315q280 0 432 145.5t152 431.5q0 139 -32 244t-89.5 173.5t-144 111.5t-187.5 61t-229 18 h-217v-1185zM762 745z" />
<glyph unicode="&#xd1;" horiz-adv-x="1486" d="M147 0v1495h195l836 -1241v1241h163v-1495h-196l-832 1239v-1239h-166zM432 1681q0 110 45 165t127 55q55 0 119.5 -23.5t112.5 -47.5t61 -24h2q19 1 30 17.5t13.5 33t3.5 44.5h109q0 -220 -148 -220q-46 0 -159.5 49.5t-151.5 49.5h-2q-24 0 -38.5 -28t-16.5 -71h-107z M743 1489z" />
<glyph unicode="&#xd2;" horiz-adv-x="1660" d="M98 745q0 233 85.5 408.5t251.5 274t394 98.5t394 -98.5t251 -274t85 -408.5q0 -165 -47.5 -305t-137.5 -243.5t-229.5 -161.5t-315.5 -58q-141 0 -259.5 38t-205 106.5t-147 164t-90 211.5t-29.5 248zM289 745q0 -132 32 -242t96 -194.5t169 -132t243 -47.5t243 47.5 t168.5 132t95.5 194.5t32 242q0 288 -138 457.5t-401 169.5q-264 0 -402 -168.5t-138 -458.5zM614 2030h250l185 -388h-113zM831 1489z" />
<glyph unicode="&#xd3;" horiz-adv-x="1660" d="M98 745q0 233 85.5 408.5t251.5 274t394 98.5t394 -98.5t251 -274t85 -408.5q0 -165 -47.5 -305t-137.5 -243.5t-229.5 -161.5t-315.5 -58q-141 0 -259.5 38t-205 106.5t-147 164t-90 211.5t-29.5 248zM289 745q0 -132 32 -242t96 -194.5t169 -132t243 -47.5t243 47.5 t168.5 132t95.5 194.5t32 242q0 288 -138 457.5t-401 169.5q-264 0 -402 -168.5t-138 -458.5zM610 1640l187 390h254l-326 -390h-115zM831 1489z" />
<glyph unicode="&#xd4;" horiz-adv-x="1660" d="M98 745q0 233 85.5 408.5t251.5 274t394 98.5t394 -98.5t251 -274t85 -408.5q0 -165 -47.5 -305t-137.5 -243.5t-229.5 -161.5t-315.5 -58q-141 0 -259.5 38t-205 106.5t-147 164t-90 211.5t-29.5 248zM289 745q0 -132 32 -242t96 -194.5t169 -132t243 -47.5t243 47.5 t168.5 132t95.5 194.5t32 242q0 288 -138 457.5t-401 169.5q-264 0 -402 -168.5t-138 -458.5zM539 1642l186 388h213l186 -388h-133l-162 273l-159 -273h-131zM831 1489z" />
<glyph unicode="&#xd5;" horiz-adv-x="1660" d="M98 745q0 233 85.5 408.5t251.5 274t394 98.5t394 -98.5t251 -274t85 -408.5q0 -165 -47.5 -305t-137.5 -243.5t-229.5 -161.5t-315.5 -58q-141 0 -259.5 38t-205 106.5t-147 164t-90 211.5t-29.5 248zM289 745q0 -132 32 -242t96 -194.5t169 -132t243 -47.5t243 47.5 t168.5 132t95.5 194.5t32 242q0 288 -138 457.5t-401 169.5q-264 0 -402 -168.5t-138 -458.5zM520 1681q0 110 45 165t127 55q55 0 119.5 -23.5t112.5 -47.5t61 -24h2q19 1 30 17.5t13.5 33t3.5 44.5h109q0 -220 -148 -220q-47 0 -160 49.5t-151 49.5h-2q-24 0 -38.5 -28 t-16.5 -71h-107zM831 1489z" />
<glyph unicode="&#xd6;" horiz-adv-x="1660" d="M98 745q0 233 85.5 408.5t251.5 274t394 98.5t394 -98.5t251 -274t85 -408.5q0 -165 -47.5 -305t-137.5 -243.5t-229.5 -161.5t-315.5 -58q-141 0 -259.5 38t-205 106.5t-147 164t-90 211.5t-29.5 248zM289 745q0 -132 32 -242t96 -194.5t169 -132t243 -47.5t243 47.5 t168.5 132t95.5 194.5t32 242q0 288 -138 457.5t-401 169.5q-264 0 -402 -168.5t-138 -458.5zM559 1645v213h154v-213h-154zM831 1489zM948 1645v213h156v-213h-156z" />
<glyph unicode="&#xd7;" horiz-adv-x="1132" d="M145 256l328 324l-328 325l93 94l329 -325l330 325l92 -94l-327 -325l327 -324l-92 -96l-330 325l-329 -325z" />
<glyph unicode="&#xd8;" horiz-adv-x="1716" d="M121 778q0 373 193.5 590t537.5 217q132 0 248 -35l78 195l131 -45l-82 -203q172 -95 263 -279.5t91 -439.5q0 -176 -47 -322.5t-137 -254t-229.5 -167t-315.5 -59.5q-132 0 -234 29l-73 -184l-125 43l76 190q-183 92 -279 282t-96 443zM311 784q0 -189 64.5 -335 t189.5 -222l467 1155q-79 27 -180 27q-132 0 -236 -48.5t-170 -134t-100.5 -198t-34.5 -244.5zM688 172q70 -20 164 -20q133 0 237.5 48.5t169.5 134.5t98.5 200t33.5 249q0 176 -60 317.5t-176 221.5zM858 1489z" />
<glyph unicode="&#xd9;" horiz-adv-x="1384" d="M127 522v973h176v-967q0 -218 90.5 -310.5t294.5 -92.5q203 0 294 93t91 310v967h176v-973q0 -101 -16.5 -181t-56 -149.5t-102.5 -116t-160.5 -72.5t-225.5 -26t-225 26t-160 72.5t-103 116t-56.5 149.5t-16.5 181zM477 2030h250l184 -388h-112zM694 1489z" />
<glyph unicode="&#xda;" horiz-adv-x="1384" d="M127 522v973h176v-967q0 -218 90.5 -310.5t294.5 -92.5q203 0 294 93t91 310v967h176v-973q0 -101 -16.5 -181t-56 -149.5t-102.5 -116t-160.5 -72.5t-225.5 -26t-225 26t-160 72.5t-103 116t-56.5 149.5t-16.5 181zM473 1640l186 390h254l-325 -390h-115zM694 1489z" />
<glyph unicode="&#xdb;" horiz-adv-x="1384" d="M127 522v973h176v-967q0 -218 90.5 -310.5t294.5 -92.5q203 0 294 93t91 310v967h176v-973q0 -101 -16.5 -181t-56 -149.5t-102.5 -116t-160.5 -72.5t-225.5 -26t-225 26t-160 72.5t-103 116t-56.5 149.5t-16.5 181zM399 1642l187 388h213l186 -388h-133l-162 273 l-160 -273h-131zM692 1489z" />
<glyph unicode="&#xdc;" horiz-adv-x="1384" d="M127 522v973h176v-967q0 -218 90.5 -310.5t294.5 -92.5q203 0 294 93t91 310v967h176v-973q0 -101 -16.5 -181t-56 -149.5t-102.5 -116t-160.5 -72.5t-225.5 -26t-225 26t-160 72.5t-103 116t-56.5 149.5t-16.5 181zM422 1645v213h153v-213h-153zM694 1489zM811 1645v213 h156v-213h-156z" />
<glyph unicode="&#xdd;" horiz-adv-x="1241" d="M0 1495h186l424 -717l441 717h192l-557 -881v-614h-176v614zM401 1640l187 390h254l-326 -390h-115zM623 1489z" />
<glyph unicode="&#xde;" horiz-adv-x="1290" d="M147 0v1495h177v-278h323q281 0 421 -98.5t140 -327.5q0 -209 -120 -329t-369 -120l-395 6v-348h-177zM324 494h385q331 0 331 288q0 150 -85.5 217.5t-288.5 67.5h-342v-573z" />
<glyph unicode="&#xdf;" horiz-adv-x="1220" d="M119 0v1047q0 229 111.5 354t336.5 125q190 0 305 -92.5t115 -251.5q0 -35 -7.5 -66t-18.5 -54.5t-31 -47.5t-37.5 -40t-47.5 -36.5t-50.5 -32.5t-56.5 -33t-56 -34q38 -27 99.5 -64.5t109 -65t102 -69t89.5 -81t59 -94.5t24 -116q0 -93 -28.5 -161.5t-81 -108.5 t-119.5 -59t-150 -19h-344l17 147h311q97 0 152 52.5t55 142.5q0 49 -26 94.5t-73.5 84.5t-91.5 67t-105.5 63.5t-88.5 53.5q-82 58 -82 116q0 61 63 113q24 20 60.5 43.5t62 40.5t51 40.5t39 54t13.5 69.5q0 87 -67.5 138.5t-164.5 51.5q-280 0 -280 -315v-1057h-168z" />
<glyph unicode="&#xe0;" horiz-adv-x="1026" d="M86 274q0 191 172 276q100 50 324 84q20 3 65 9l111 12v125q0 102 -52.5 152.5t-164.5 50.5q-89 0 -181 -20.5t-161 -53.5l-47 131q67 36 170.5 60t214.5 24q86 0 153 -15.5t121.5 -50.5t83.5 -98.5t29 -152.5v-807h-138l-24 121q-129 -146 -342 -146q-144 0 -239 76.5 t-95 222.5zM254 281q0 -88 49.5 -131.5t132.5 -43.5q81 0 175.5 45.5t146.5 116.5v271q-99 -15 -101 -15q-237 -31 -320 -80t-83 -163zM311 1638h250l184 -387h-112zM528 1098z" />
<glyph unicode="&#xe1;" horiz-adv-x="1026" d="M86 274q0 191 172 276q100 50 324 84q20 3 65 9l111 12v125q0 102 -52.5 152.5t-164.5 50.5q-89 0 -181 -20.5t-161 -53.5l-47 131q67 36 170.5 60t214.5 24q86 0 153 -15.5t121.5 -50.5t83.5 -98.5t29 -152.5v-807h-138l-24 121q-129 -146 -342 -146q-144 0 -239 76.5 t-95 222.5zM254 281q0 -88 49.5 -131.5t132.5 -43.5q81 0 175.5 45.5t146.5 116.5v271q-99 -15 -101 -15q-237 -31 -320 -80t-83 -163zM307 1249l187 389h254l-326 -389h-115zM528 1098z" />
<glyph unicode="&#xe2;" horiz-adv-x="1026" d="M86 274q0 191 172 276q100 50 324 84q20 3 65 9l111 12v125q0 102 -52.5 152.5t-164.5 50.5q-89 0 -181 -20.5t-161 -53.5l-47 131q67 36 170.5 60t214.5 24q86 0 153 -15.5t121.5 -50.5t83.5 -98.5t29 -152.5v-807h-138l-24 121q-129 -146 -342 -146q-144 0 -239 76.5 t-95 222.5zM236 1251l186 387h213l186 -387h-133l-162 273l-159 -273h-131zM254 281q0 -88 49.5 -131.5t132.5 -43.5q81 0 175.5 45.5t146.5 116.5v271q-99 -15 -101 -15q-237 -31 -320 -80t-83 -163zM528 1098z" />
<glyph unicode="&#xe3;" horiz-adv-x="1026" d="M86 274q0 191 172 276q100 50 324 84q20 3 65 9l111 12v125q0 102 -52.5 152.5t-164.5 50.5q-89 0 -181 -20.5t-161 -53.5l-47 131q67 36 170.5 60t214.5 24q86 0 153 -15.5t121.5 -50.5t83.5 -98.5t29 -152.5v-807h-138l-24 121q-129 -146 -342 -146q-144 0 -239 76.5 t-95 222.5zM217 1290q0 110 45 164.5t127 54.5q55 0 119.5 -23.5t112.5 -47t61 -23.5h2q19 1 30 17t13.5 32.5t3.5 44.5h109q0 -219 -148 -219q-46 0 -160 49.5t-151 49.5h-2q-24 0 -38.5 -28t-16.5 -71h-107zM254 281q0 -88 49.5 -131.5t132.5 -43.5q81 0 175.5 45.5 t146.5 116.5v271q-99 -15 -101 -15q-237 -31 -320 -80t-83 -163zM528 1098z" />
<glyph unicode="&#xe4;" horiz-adv-x="1026" d="M86 274q0 191 172 276q100 50 324 84q20 3 65 9l111 12v125q0 102 -52.5 152.5t-164.5 50.5q-89 0 -181 -20.5t-161 -53.5l-47 131q67 36 170.5 60t214.5 24q86 0 153 -15.5t121.5 -50.5t83.5 -98.5t29 -152.5v-807h-138l-24 121q-129 -146 -342 -146q-144 0 -239 76.5 t-95 222.5zM254 281q0 -88 49.5 -131.5t132.5 -43.5q81 0 175.5 45.5t146.5 116.5v271q-99 -15 -101 -15q-237 -31 -320 -80t-83 -163zM256 1253v213h154v-213h-154zM528 1098zM645 1253v213h156v-213h-156z" />
<glyph unicode="&#xe5;" horiz-adv-x="1026" d="M86 274q0 191 172 276q100 50 324 84q20 3 65 9l111 12v125q0 102 -52.5 152.5t-164.5 50.5q-89 0 -181 -20.5t-161 -53.5l-47 131q67 36 170.5 60t214.5 24q86 0 153 -15.5t121.5 -50.5t83.5 -98.5t29 -152.5v-807h-138l-24 121q-129 -146 -342 -146q-144 0 -239 76.5 t-95 222.5zM254 281q0 -88 49.5 -131.5t132.5 -43.5q81 0 175.5 45.5t146.5 116.5v271q-99 -15 -101 -15q-237 -31 -320 -80t-83 -163zM334 1442q0 -83 57.5 -134t138.5 -51q77 0 135 51t58 134t-58 139.5t-137 56.5q-78 0 -136 -55t-58 -141zM430 1442q0 45 30 79.5 t68 34.5q41 0 69 -34t28 -80q0 -45 -29.5 -79t-67.5 -34q-45 0 -71.5 31t-26.5 82zM528 1098z" />
<glyph unicode="&#xe6;" horiz-adv-x="1673" d="M80 301q0 55 16.5 99.5t43 75t71 53.5t88 37t108 23.5t117 14t127.5 8.5q10 1 32 2t32 2v164q0 102 -44 149.5t-147 47.5q-97 0 -192.5 -23.5t-163.5 -58.5l-37 137q65 37 174 64.5t215 27.5q124 0 209.5 -49t108.5 -143q54 95 147.5 143.5t206.5 48.5q98 0 172.5 -36.5 t117.5 -99.5t64 -139.5t21 -164.5q0 -52 -13 -80.5t-55 -46.5t-121 -22l-495 -25q13 -187 86 -289t225 -102q88 0 174.5 33t149.5 77l51 -120q-157 -134 -385 -134q-203 0 -328 138q-97 -59 -220 -98.5t-233 -39.5q-68 0 -124.5 17.5t-102 54.5t-71 101.5t-25.5 152.5z M248 291q0 -178 168 -178q32 0 67 5t81.5 18.5t70.5 21t82 27.5t69 24q-66 120 -75 291q-11 -1 -32.5 -2t-31.5 -2q-159 -12 -247 -38.5t-120 -65t-32 -101.5zM838 1098zM889 614l516 29v10q-2 171 -53.5 250.5t-161.5 79.5q-143 0 -218 -101.5t-83 -267.5z" />
<glyph unicode="&#xe7;" horiz-adv-x="960" d="M78 549q0 -92 21.5 -177t66 -157t106.5 -125.5t148 -84t186 -30.5q85 0 165 26t132 75l-41 119q-116 -82 -248 -82q-163 0 -264.5 121t-101.5 311t101.5 315t252.5 125q142 0 258 -76l43 119q-46 45 -125.5 70.5t-173.5 25.5q-119 0 -219.5 -47t-166.5 -127 t-102.5 -183.5t-37.5 -217.5zM299 -403l8 92q98 -27 133 -27q101 0 101 78q0 80 -99 80h-5q-5 -1 -12 -1.5t-13 -0.5l-29 -2l27 200h86l-13 -112h6q75 0 126 -40.5t51 -119.5q0 -83 -59 -126.5t-154 -43.5q-52 0 -154 23zM483 0z" />
<glyph unicode="&#xe8;" horiz-adv-x="1087" d="M78 551q0 -265 135 -420.5t369 -155.5q254 0 405 131l-51 123q-162 -110 -348 -110q-148 0 -243 108.5t-95 290.5h751q0 9 1.5 38.5t1.5 37.5q0 243 -119.5 386.5t-323.5 143.5q-215 -6 -349 -166t-134 -407zM256 635q13 161 96.5 256.5t208.5 95.5q127 0 204 -91 t77 -261h-586zM330 1638h250l184 -387h-113zM547 1098z" />
<glyph unicode="&#xe9;" horiz-adv-x="1087" d="M78 551q0 -265 135 -420.5t369 -155.5q254 0 405 131l-51 123q-162 -110 -348 -110q-148 0 -243 108.5t-95 290.5h751q0 9 1.5 38.5t1.5 37.5q0 243 -119.5 386.5t-323.5 143.5q-215 -6 -349 -166t-134 -407zM256 635q13 161 96.5 256.5t208.5 95.5q127 0 204 -91 t77 -261h-586zM326 1249l186 389h254l-326 -389h-114zM547 1098z" />
<glyph unicode="&#xea;" horiz-adv-x="1087" d="M78 551q0 -265 135 -420.5t369 -155.5q254 0 405 131l-51 123q-162 -110 -348 -110q-148 0 -243 108.5t-95 290.5h751q0 9 1.5 38.5t1.5 37.5q0 243 -119.5 386.5t-323.5 143.5q-215 -6 -349 -166t-134 -407zM254 1251l186 387h213l187 -387h-133l-162 273l-160 -273 h-131zM256 635q13 161 96.5 256.5t208.5 95.5q127 0 204 -91t77 -261h-586zM547 1098z" />
<glyph unicode="&#xeb;" horiz-adv-x="1087" d="M78 551q0 -265 135 -420.5t369 -155.5q254 0 405 131l-51 123q-162 -110 -348 -110q-148 0 -243 108.5t-95 290.5h751q0 9 1.5 38.5t1.5 37.5q0 243 -119.5 386.5t-323.5 143.5q-215 -6 -349 -166t-134 -407zM256 635q13 161 96.5 256.5t208.5 95.5q127 0 204 -91 t77 -261h-586zM274 1253v213h154v-213h-154zM547 1098zM664 1253v213h155v-213h-155z" />
<glyph unicode="&#xec;" horiz-adv-x="428" d="M-2 1638h250l184 -387h-113zM135 0v1098h168v-1098h-168zM215 1098z" />
<glyph unicode="&#xed;" horiz-adv-x="428" d="M-6 1249l186 389h254l-325 -389h-115zM135 0v1098h168v-1098h-168zM215 1098z" />
<glyph unicode="&#xee;" horiz-adv-x="428" d="M-78 1251l187 387h213l186 -387h-133l-162 273l-160 -273h-131zM135 0v1098h168v-1098h-168zM215 1098z" />
<glyph unicode="&#xef;" horiz-adv-x="428" d="M-57 1253v213h153v-213h-153zM135 0v1098h168v-1098h-168zM215 1098zM332 1253v213h155v-213h-155z" />
<glyph unicode="&#xf0;" horiz-adv-x="1183" d="M78 485q0 140 63 252.5t170.5 174t237.5 61.5q153 0 285 -96q-86 165 -289 370l-252 -104l-64 114l224 86l-164 166h217l98 -98l252 100l62 -108l-222 -90q209 -241 310 -428q102 -188 102 -393q0 -111 -33 -204.5t-96 -163.5t-161.5 -109.5t-223.5 -39.5 q-160 0 -279.5 71t-178 185.5t-58.5 253.5zM258 485q0 -153 89.5 -261.5t250.5 -108.5q157 0 247.5 100.5t90.5 255.5q0 93 -38.5 174t-118 135t-185.5 54q-155 0 -245.5 -100.5t-90.5 -248.5z" />
<glyph unicode="&#xf1;" horiz-adv-x="1114" d="M111 1098h145l14 -162q64 87 170.5 137.5t221.5 50.5q179 0 262.5 -116.5t83.5 -350.5v-657h-168v551q0 70 -1.5 114.5t-6 95t-13.5 80.5t-24.5 60t-38.5 45.5t-55.5 25t-75.5 9.5q-66 0 -127 -22t-103.5 -57t-72 -74.5t-39.5 -77.5v-750h-168v831zM246 1290 q0 110 45 164.5t127 54.5q55 0 119.5 -23.5t112.5 -47t61 -23.5h2q19 1 30 17t13.5 32.5t3.5 44.5h108q0 -219 -147 -219q-47 0 -160 49.5t-151 49.5h-2q-24 0 -39 -28t-17 -71h-106zM557 1098z" />
<glyph unicode="&#xf2;" horiz-adv-x="1181" d="M78 547q0 118 35 222.5t100 183.5t164.5 125t220.5 46q123 0 220 -45.5t158.5 -124.5t93.5 -182t32 -223q0 -115 -33.5 -218t-96 -182.5t-160.5 -126.5t-218 -47q-121 0 -220 45t-163 123t-98.5 181.5t-34.5 222.5zM250 545q0 -85 21 -161t62.5 -137.5t109.5 -97.5 t155 -36q86 0 151.5 36t103.5 98t56.5 137.5t18.5 162.5q0 91 -18 167t-55.5 138.5t-104 97.5t-156.5 35q-85 0 -152.5 -37t-108.5 -99.5t-62 -140t-21 -163.5zM375 1638h250l184 -387h-113zM590 1098z" />
<glyph unicode="&#xf3;" horiz-adv-x="1181" d="M78 547q0 118 35 222.5t100 183.5t164.5 125t220.5 46q123 0 220 -45.5t158.5 -124.5t93.5 -182t32 -223q0 -115 -33.5 -218t-96 -182.5t-160.5 -126.5t-218 -47q-121 0 -220 45t-163 123t-98.5 181.5t-34.5 222.5zM250 545q0 -85 21 -161t62.5 -137.5t109.5 -97.5 t155 -36q86 0 151.5 36t103.5 98t56.5 137.5t18.5 162.5q0 91 -18 167t-55.5 138.5t-104 97.5t-156.5 35q-85 0 -152.5 -37t-108.5 -99.5t-62 -140t-21 -163.5zM371 1249l186 389h254l-326 -389h-114zM590 1098z" />
<glyph unicode="&#xf4;" horiz-adv-x="1181" d="M78 547q0 118 35 222.5t100 183.5t164.5 125t220.5 46q123 0 220 -45.5t158.5 -124.5t93.5 -182t32 -223q0 -115 -33.5 -218t-96 -182.5t-160.5 -126.5t-218 -47q-121 0 -220 45t-163 123t-98.5 181.5t-34.5 222.5zM250 545q0 -85 21 -161t62.5 -137.5t109.5 -97.5 t155 -36q86 0 151.5 36t103.5 98t56.5 137.5t18.5 162.5q0 91 -18 167t-55.5 138.5t-104 97.5t-156.5 35q-85 0 -152.5 -37t-108.5 -99.5t-62 -140t-21 -163.5zM299 1251l186 387h213l187 -387h-133l-162 273l-160 -273h-131zM590 1098z" />
<glyph unicode="&#xf5;" horiz-adv-x="1181" d="M78 547q0 118 35 222.5t100 183.5t164.5 125t220.5 46q123 0 220 -45.5t158.5 -124.5t93.5 -182t32 -223q0 -115 -33.5 -218t-96 -182.5t-160.5 -126.5t-218 -47q-121 0 -220 45t-163 123t-98.5 181.5t-34.5 222.5zM250 545q0 -85 21 -161t62.5 -137.5t109.5 -97.5 t155 -36q86 0 151.5 36t103.5 98t56.5 137.5t18.5 162.5q0 91 -18 167t-55.5 138.5t-104 97.5t-156.5 35q-85 0 -152.5 -37t-108.5 -99.5t-62 -140t-21 -163.5zM281 1290q0 110 45 164.5t127 54.5q55 0 119.5 -23.5t112 -47t60.5 -23.5h3q19 1 30 17t13.5 32.5t3.5 44.5h108 q0 -219 -147 -219q-46 0 -160 49.5t-152 49.5h-2q-24 0 -38.5 -28t-16.5 -71h-106zM590 1098z" />
<glyph unicode="&#xf6;" horiz-adv-x="1177" d="M78 547q0 118 35 222.5t100 183.5t164.5 125t220.5 46q123 0 220 -45.5t158.5 -124.5t93.5 -182t32 -223q0 -115 -33.5 -218t-96 -182.5t-160.5 -126.5t-218 -47q-121 0 -220 45t-163 123t-98.5 181.5t-34.5 222.5zM250 545q0 -85 21 -161t62.5 -137.5t109.5 -97.5 t155 -36q86 0 151.5 36t103.5 98t56.5 137.5t18.5 162.5q0 91 -18 167t-55.5 138.5t-104 97.5t-156.5 35q-85 0 -152.5 -37t-108.5 -99.5t-62 -140t-21 -163.5zM319 1253v213h154v-213h-154zM590 1098zM709 1253v213h155v-213h-155z" />
<glyph unicode="&#xf7;" horiz-adv-x="1210" d="M96 522v150h1002v-150h-1002zM492 23v227h190v-227h-190zM492 938v227h225v-227h-225z" />
<glyph unicode="&#xf8;" horiz-adv-x="1177" d="M78 547q0 118 35 222.5t100 183.5t164.5 125t220.5 46q123 0 220 -45.5t158.5 -124.5t93.5 -182t32 -223q0 -115 -33.5 -218t-96 -182.5t-160.5 -126.5t-218 -47q-121 0 -220 45t-163 123t-98.5 181.5t-34.5 222.5zM215 -238l680 1604l76 -31l-684 -1609zM250 545 q0 -85 21 -161t62.5 -137.5t109.5 -97.5t155 -36q86 0 151.5 36t103.5 98t56.5 137.5t18.5 162.5q0 91 -18 167t-55.5 138.5t-104 97.5t-156.5 35q-85 0 -152.5 -37t-108.5 -99.5t-62 -140t-21 -163.5zM596 1098z" />
<glyph unicode="&#xf9;" horiz-adv-x="1097" d="M109 367v731h167v-733q0 -72 20 -122.5t58.5 -78t86 -39.5t110.5 -12q62 0 108.5 12.5t84.5 40t57.5 78t19.5 121.5v733h168v-731q0 -105 -35.5 -182.5t-97.5 -122.5t-138.5 -66t-166.5 -21q-72 0 -135 13t-120 42.5t-98 74t-65 111.5t-24 151zM334 1638h250l184 -387 h-113zM989 10z" />
<glyph unicode="&#xfa;" horiz-adv-x="1097" d="M109 367v731h167v-733q0 -72 20 -122.5t58.5 -78t86 -39.5t110.5 -12q62 0 108.5 12.5t84.5 40t57.5 78t19.5 121.5v733h168v-731q0 -105 -35.5 -182.5t-97.5 -122.5t-138.5 -66t-166.5 -21q-72 0 -135 13t-120 42.5t-98 74t-65 111.5t-24 151zM330 1249l186 389h254 l-326 -389h-114zM989 10z" />
<glyph unicode="&#xfb;" horiz-adv-x="1097" d="M109 367v731h167v-733q0 -72 20 -122.5t58.5 -78t86 -39.5t110.5 -12q62 0 108.5 12.5t84.5 40t57.5 78t19.5 121.5v733h168v-731q0 -105 -35.5 -182.5t-97.5 -122.5t-138.5 -66t-166.5 -21q-72 0 -135 13t-120 42.5t-98 74t-65 111.5t-24 151zM258 1251l186 387h213 l187 -387h-133l-162 273l-160 -273h-131zM989 10z" />
<glyph unicode="&#xfc;" horiz-adv-x="1097" d="M109 367v731h167v-733q0 -72 20 -122.5t58.5 -78t86 -39.5t110.5 -12q62 0 108.5 12.5t84.5 40t57.5 78t19.5 121.5v733h168v-731q0 -105 -35.5 -182.5t-97.5 -122.5t-138.5 -66t-166.5 -21q-72 0 -135 13t-120 42.5t-98 74t-65 111.5t-24 151zM279 1253v213h153v-213 h-153zM668 1253v213h155v-213h-155zM989 10z" />
<glyph unicode="&#xfd;" horiz-adv-x="989" d="M4 1098l426 -1075q-31 -92 -51.5 -145.5t-47 -100.5t-48.5 -68t-59.5 -36.5t-76 -19t-102.5 -3.5h-29l21 -152h51q76 0 138.5 14.5t111 45t85.5 67.5t68.5 92.5t54.5 108.5t48 127l399 1145h-178q-203 -630 -289 -891l-346 891h-176zM276 1249l187 389h254l-326 -389 h-115zM510 1098z" />
<glyph unicode="&#xfe;" horiz-adv-x="1204" d="M125 -459l168 23v598q112 -187 350 -187q111 0 200 49.5t144 133t84 186.5t29 215q0 159 -56 287t-161 202.5t-240 75.5q-221 0 -350 -190v575l-168 -14v-233v-1721zM291 551q0 118 37 214.5t116 158t187 61.5q66 0 118.5 -27t84.5 -70t53.5 -101t30 -116t8.5 -120 q0 -61 -8.5 -119t-30.5 -117t-55 -103t-86.5 -71.5t-120.5 -27.5q-87 0 -153 35.5t-104.5 97.5t-57.5 138.5t-19 166.5z" />
<glyph unicode="&#xff;" horiz-adv-x="989" d="M4 1098l426 -1075q-31 -92 -51.5 -145.5t-47 -100.5t-48.5 -68t-59.5 -36.5t-76 -19t-102.5 -3.5h-29l21 -152h51q76 0 138.5 14.5t111 45t85.5 67.5t68.5 92.5t54.5 108.5t48 127l399 1145h-178q-203 -630 -289 -891l-346 891h-176zM225 1253v213h154v-213h-154z M498 1098zM614 1253v213h156v-213h-156z" />
<glyph unicode="&#x152;" horiz-adv-x="1978" d="M100 770q4 161 58 301t145.5 239.5t220.5 156.5t277 57q107 0 198 -30t150 -81v82h725l-16 -154h-533v-495h496v-154h-496v-536h573l-16 -156h-733v82q-34 -35 -137.5 -70t-188.5 -35q-175 0 -313 57.5t-227.5 162.5t-136 250.5t-46.5 322.5zM291 772q0 -109 17.5 -202.5 t57.5 -175.5t100.5 -139.5t151.5 -91t205 -34.5q86 0 182.5 31.5t143.5 60.5v1039q-139 112 -334 112q-238 0 -378 -166.5t-146 -433.5zM989 1489z" />
<glyph unicode="&#x153;" horiz-adv-x="1914" d="M82 547q0 -119 33 -222.5t95 -181.5t159.5 -123t218.5 -45q141 0 244.5 62.5t166.5 173.5q64 -114 172.5 -175t253.5 -61q243 0 394 131l-54 123q-74 -50 -152 -80t-183 -30q-148 0 -242 108t-94 291h739q0 9 1 38.5t1 37.5q0 246 -110.5 388t-311.5 142 q-128 -3 -236.5 -66t-170.5 -169q-61 110 -165.5 172.5t-250.5 62.5q-121 0 -219 -46t-160 -125.5t-95.5 -183t-33.5 -222.5zM256 545q0 69 11.5 131.5t37.5 119.5t64 98.5t94 66t125 24.5q90 0 156.5 -35t104 -97.5t55.5 -138.5t18 -167q0 -87 -19 -162.5t-57.5 -137.5 t-104 -98t-151.5 -36q-87 0 -153 36t-104.5 98t-57.5 137t-19 161zM958 1098zM1100 635q13 161 96.5 256.5t208.5 95.5t195.5 -90t70.5 -262h-571z" />
<glyph unicode="&#x178;" horiz-adv-x="1241" d="M0 1495h186l424 -717l441 717h192l-557 -881v-614h-176v614zM350 1645v213h154v-213h-154zM621 1489zM739 1645v213h156v-213h-156z" />
<glyph unicode="&#x2c6;" horiz-adv-x="798" d="M109 1251l186 387h213l186 -387h-133l-162 273l-159 -273h-131zM401 1098z" />
<glyph unicode="&#x2dc;" horiz-adv-x="884" d="M115 1290q0 110 45 164.5t127 54.5q55 0 119.5 -23.5t112.5 -47t61 -23.5h2q19 1 30 17t13.5 32.5t3.5 44.5h108q0 -219 -147 -219q-46 0 -160 49.5t-151 49.5h-3q-24 0 -38.5 -28t-16.5 -71h-106zM426 1098z" />
<glyph unicode="&#x2000;" horiz-adv-x="1452" />
<glyph unicode="&#x2001;" horiz-adv-x="2904" />
<glyph unicode="&#x2002;" horiz-adv-x="1452" />
<glyph unicode="&#x2003;" horiz-adv-x="2904" />
<glyph unicode="&#x2004;" horiz-adv-x="968" />
<glyph unicode="&#x2005;" horiz-adv-x="726" />
<glyph unicode="&#x2006;" horiz-adv-x="484" />
<glyph unicode="&#x2007;" horiz-adv-x="484" />
<glyph unicode="&#x2008;" horiz-adv-x="363" />
<glyph unicode="&#x2009;" horiz-adv-x="580" />
<glyph unicode="&#x200a;" horiz-adv-x="161" />
<glyph unicode="&#x2010;" horiz-adv-x="684" d="M88 520v144h510v-144h-510z" />
<glyph unicode="&#x2011;" horiz-adv-x="684" d="M88 520v144h510v-144h-510z" />
<glyph unicode="&#x2012;" horiz-adv-x="684" d="M88 520v144h510v-144h-510z" />
<glyph unicode="&#x2013;" horiz-adv-x="1316" d="M139 526v150h1047v-150h-1047z" />
<glyph unicode="&#x2014;" horiz-adv-x="2426" d="M139 526v150h2157v-150h-2157z" />
<glyph unicode="&#x2018;" horiz-adv-x="509" d="M129 1102l135 473h119l-92 -473h-162z" />
<glyph unicode="&#x2019;" horiz-adv-x="503" d="M133 1102l92 473h158l-133 -473h-117z" />
<glyph unicode="&#x201a;" horiz-adv-x="503" d="M127 -256l90 471h162l-133 -471h-119z" />
<glyph unicode="&#x201c;" horiz-adv-x="817" d="M129 1102l133 473h121l-94 -473h-160zM438 1102l135 473h117l-90 -473h-162z" />
<glyph unicode="&#x201d;" horiz-adv-x="794" d="M133 1102l92 473h160l-135 -473h-117zM420 1102l92 473h162l-137 -473h-117z" />
<glyph unicode="&#x201e;" horiz-adv-x="817" d="M127 -256l88 471h162l-133 -471h-117zM440 -256l92 471h162l-135 -471h-119z" />
<glyph unicode="&#x2022;" horiz-adv-x="866" d="M137 748q0 135 88.5 224t210.5 89q123 0 209 -91t86 -225q0 -135 -85.5 -220t-209.5 -85q-126 0 -212.5 87.5t-86.5 220.5z" />
<glyph unicode="&#x2026;" horiz-adv-x="1480" d="M127 121q0 -54 35.5 -93.5t97.5 -39.5t97.5 39.5t35.5 93.5q0 53 -35.5 92t-97.5 39t-97.5 -39t-35.5 -92zM621 121q0 -54 35.5 -93.5t97.5 -39.5t97.5 39.5t35.5 93.5q0 53 -35.5 92t-97.5 39t-97.5 -39t-35.5 -92zM1114 121q0 -54 35.5 -93.5t97.5 -39.5t97.5 39.5 t35.5 93.5q0 53 -35.5 92t-97.5 39t-97.5 -39t-35.5 -92z" />
<glyph unicode="&#x202f;" horiz-adv-x="580" />
<glyph unicode="&#x2039;" horiz-adv-x="618" d="M121 584l239 397h142l-234 -397l228 -402h-140z" />
<glyph unicode="&#x203a;" horiz-adv-x="616" d="M125 182l229 404l-225 395h139l238 -395l-242 -404h-139z" />
<glyph unicode="&#x205f;" horiz-adv-x="726" />
<glyph unicode="&#x20ac;" horiz-adv-x="1193" d="M84 580l16 102h93q0 8 -1.5 24.5t-1.5 24.5q0 23 3.5 65.5t3.5 49.5h-113l18 110h111q19 127 63.5 229.5t113 179t166.5 118t218 41.5q185 0 293 -94l-2 -181q-109 119 -268 119q-164 0 -263 -110t-131 -302h558l-17 -110h-559q-2 -21 -2.5 -62.5t-0.5 -71.5t-1 -30h549 l-10 -102h-523q11 -92 39 -169.5t73.5 -140.5t114 -99t154.5 -36q151 0 289 109l-2 -174q-130 -93 -305 -93q-101 0 -187 35t-146.5 92.5t-107 137t-74 163t-40.5 175.5h-121z" />
<glyph unicode="&#x2122;" horiz-adv-x="1810" d="M90 1395v100h637v-100h-264v-787h-115v787h-258zM850 608v887h156l268 -672l280 672h150v-887h-115v742l-278 -670h-86l-264 670v-742h-111z" />
<glyph unicode="&#x25fc;" horiz-adv-x="1095" d="M0 0v1096h1096v-1096h-1096z" />
<glyph unicode="&#xfb01;" horiz-adv-x="1087" d="M20 981v117h160q0 134 17 217t61 133.5t109.5 69t171.5 18.5h73l21 -127h-94q-39 0 -67.5 -5.5t-49.5 -14.5t-34.5 -29.5t-21.5 -40.5t-12 -58t-5 -71.5t-1 -91.5h608v-1098h-168v981h-440v-981h-168v981h-160zM788 1298v197h168v-197h-168z" />
<glyph unicode="&#xfb02;" horiz-adv-x="1236" d="M20 981v117h160q0 120 24 201.5t73.5 127.5t115 65t158.5 19q91 0 426 -20v-1040q0 -90 1.5 -128t8.5 -87t24 -66t46.5 -30t77.5 -13q20 0 71 4l13 -131q-115 -12 -125 -12q-51 0 -90 5.5t-69 21.5t-50.5 34t-35 52.5t-22.5 66.5t-12 88t-5 104t-1 127v889q-145 8 -205 8 q-14 0 -24.5 -0.5t-15.5 -1t-7 -0.5q-119 0 -164 -61t-45 -223h250v-117h-250v-981h-168v981h-160z" />
<glyph unicode="&#xfb03;" horiz-adv-x="1583" d="M20 981v117h160q0 134 17 217t61 133.5t109.5 69t171.5 18.5h73l21 -127h-94q-39 0 -67.5 -5.5t-49.5 -14.5t-34.5 -29.5t-21.5 -40.5t-12 -58t-5 -71.5t-1 -91.5h389q0 110 9 181.5t30 124t60.5 80t95 40t139.5 12.5h78l6 -127h-84q-46 0 -76.5 -7.5t-48.5 -21 t-27 -41.5t-11.5 -57.5t-2.5 -81.5v-102h547v-1098h-168v981h-379v-981h-168v981h-389v-981h-168v981h-160zM1284 1298v197h168v-197h-168z" />
</font>
</defs>
</svg>
