<?xml version="1.0" standalone="no"?>
<!DOCTYPE svg PUBLIC "-//W3C//DTD SVG 1.1//EN" "http://www.w3.org/Graphics/SVG/1.1/DTD/svg11.dtd" >
<svg xmlns="http://www.w3.org/2000/svg">
<metadata></metadata>
<defs>
<font id="oxygenbold_italic" horiz-adv-x="1069" >
<font-face units-per-em="2048" ascent="1638" descent="-410" />
<missing-glyph horiz-adv-x="403" />
<glyph horiz-adv-x="0" />
<glyph unicode="&#xd;" horiz-adv-x="0" />
<glyph unicode=" "  horiz-adv-x="403" />
<glyph unicode="&#x09;" horiz-adv-x="403" />
<glyph unicode="&#xa0;" horiz-adv-x="403" />
<glyph unicode="!" horiz-adv-x="380" d="M57 139q9 66 62.5 114t116.5 48t100.5 -48t28.5 -114t-60.5 -112.5t-114.5 -46.5t-102.5 46.5t-30.5 112.5zM211 455l33 743l35 248h245l-35 -248l-167 -743h-111z" />
<glyph unicode="&#x22;" horiz-adv-x="614" d="M227 938l35 514h209l-72 -514h-172zM514 938l41 514h205l-74 -514h-172z" />
<glyph unicode="#" horiz-adv-x="1011" d="M86 381l41 184h188l101 330h-180l40 184h195l125 375h186l-120 -375h149l119 375h188l-123 -375h138l-46 -182h-149l-109 -332h152l-45 -184h-162l-129 -404h-186l129 404h-146l-129 -404h-188l131 404h-170zM498 565h149l105 332h-150z" />
<glyph unicode="$" horiz-adv-x="1175" d="M76 104l104 218q67 -49 176.5 -81t221.5 -32q254 0 276 172q6 49 -4 84.5t-39.5 60.5t-58.5 40t-80 34l-164 62q-55 20 -97 41t-84.5 55.5t-67.5 75.5t-36.5 101t-1.5 132q14 101 65 180.5t126.5 129.5t168.5 76t197 26q296 0 430 -115l-100 -201q-125 90 -360 90 q-214 0 -236 -157q-11 -76 20 -114.5t99 -63.5l176 -66q87 -33 140 -61.5t111 -78t79.5 -123.5t7.5 -173q-21 -144 -107 -244t-210 -146t-277 -46q-308 0 -475 124zM496 -197l258 1835h98l-258 -1835h-98z" />
<glyph unicode="%" horiz-adv-x="1642" d="M184 1055q24 171 133.5 284t268.5 113q165 0 244 -111t55 -282v-2q-24 -169 -139 -283.5t-277 -114.5q-159 0 -234 112t-51 284zM256 -41l1083 1487l4 4h216q-1 -2 -7 -8l-1077 -1483h-219zM373 1055q-14 -102 15.5 -161.5t107.5 -59.5t126 61t62 162q14 102 -16.5 162.5 t-108.5 60.5t-125 -61.5t-61 -163.5zM971 373v2q0 10 1 21t2.5 24.5t2.5 21.5q22 148 128.5 238t262.5 90q86 0 150 -30t99 -83t47.5 -123.5t0.5 -154.5q-24 -168 -133 -281.5t-264 -113.5q-108 0 -181.5 52t-102.5 140t-13 197zM1174 373q-14 -100 15.5 -158.5t106.5 -58.5 q76 0 121.5 61t59.5 162t-18 160t-116 59q-83 0 -118 -57t-51 -168z" />
<glyph unicode="&#x26;" horiz-adv-x="1320" d="M96 408q11 79 44.5 146t86.5 119.5t108.5 91t127.5 75.5q-56 81 -81 148.5t-13 156.5q12 86 51 152.5t95 106t120.5 59.5t134.5 20q68 0 129.5 -18.5t112 -55t75.5 -100.5t13 -146q-10 -70 -42.5 -129t-85 -104.5t-101.5 -76.5t-115 -65l268 -356q92 99 162 213l149 -121 q-85 -137 -192 -250l162 -219l-224 -71l-108 145q-217 -152 -445 -152q-74 0 -140.5 14t-126.5 46.5t-100.5 80.5t-59 123t-5.5 167zM340 432q-17 -126 47.5 -181.5t179.5 -55.5q138 0 281 96l-285 424q-93 -52 -151 -118.5t-72 -164.5zM584 1137q-8 -62 11 -112.5 t58 -106.5q45 25 69 40.5t59 44t54 63.5t25 77q10 69 -22 104t-93 35q-65 0 -108 -36t-53 -109z" />
<glyph unicode="'" horiz-adv-x="325" d="M225 938l37 514h209l-72 -514h-174z" />
<glyph unicode="(" horiz-adv-x="598" d="M163.5 425q-0.5 103 14.5 210q18 133 55.5 254.5t93 230.5t108.5 193t126 184h254q-12 -18 -33.5 -50.5t-77.5 -132t-101.5 -197.5t-90.5 -232t-61 -250q-15 -127 -9 -249.5t27 -234t43.5 -196t40.5 -134.5l18 -50h-254q-35 79 -59.5 144.5t-48 153t-34.5 170.5 t-11.5 186z" />
<glyph unicode=")" horiz-adv-x="593" d="M-39 -229q13 18 34 51t77 132.5t102 197.5t91 232.5t61 250.5q15 127 9 249.5t-27 233.5t-44 195.5t-41 134.5l-18 49h254q35 -79 59 -144.5t48 -152.5t35 -170t11.5 -185.5t-14.5 -209.5q-18 -133 -55.5 -255t-93 -231t-108.5 -193.5t-126 -184.5h-254z" />
<glyph unicode="*" horiz-adv-x="985" d="M197 1059l114 186l260 -147l27 346h201l-74 -346l303 147l62 -186l-334 -123l192 -299l-203 -121l-135 309l-223 -309l-168 121l277 299z" />
<glyph unicode="+" horiz-adv-x="1114" d="M129 461l29 198h395l55 398h203l-55 -398h393l-29 -198h-395l-55 -400h-205l55 400h-391z" />
<glyph unicode="," horiz-adv-x="403" d="M-8 -305l184 528h232l-242 -528h-174z" />
<glyph unicode="-" horiz-adv-x="665" d="M127 432l29 195h534l-26 -195h-537z" />
<glyph unicode="." horiz-adv-x="405" d="M74 139q9 66 63 114t117 48t100.5 -48t28.5 -114t-61 -112.5t-115 -46.5t-102.5 46.5t-30.5 112.5z" />
<glyph unicode="/" horiz-adv-x="856" d="M25 -178l778 1675h217l-782 -1675h-213z" />
<glyph unicode="0" horiz-adv-x="1224" d="M178.5 536.5q0.5 89.5 14.5 188.5q17 120 48 226.5t84 204.5t121.5 168.5t165.5 112.5t211 42q96 0 171 -29t124 -82t81 -122.5t44.5 -155.5t12 -176t-14.5 -189q-17 -120 -47.5 -225t-83 -202t-121.5 -166.5t-165.5 -110.5t-211.5 -41q-96 0 -171.5 28.5t-124.5 80 t-81 120t-44.5 153.5t-12 174.5zM461 485.5q0 -62.5 10.5 -109.5t30.5 -85.5t56.5 -59t86.5 -20.5t92 20.5t73 59.5t55 86t42 109t29.5 120t21.5 127q10 68 14 125t3.5 118t-11.5 106.5t-31 83t-56 57.5t-86 20q-59 0 -107.5 -29.5t-80.5 -76t-57.5 -116t-40 -135 t-26.5 -147.5h2v-6q-10 -70 -15 -127.5t-5 -120z" />
<glyph unicode="1" horiz-adv-x="655" d="M195 1079l28 213l295 156h232l-203 -1448h-266l165 1190z" />
<glyph unicode="2" horiz-adv-x="950" d="M51 0l33 233l477 488q79 79 127 154t60 165q12 86 -38 144.5t-132 58.5q-151 0 -299 -121l-43 213q88 73 182 108.5t215 35.5q200 0 312.5 -117t84.5 -322q-9 -65 -36.5 -131.5t-59 -117.5t-79 -108.5t-81.5 -93t-82 -81.5l-309 -297h516l-49 -211h-799z" />
<glyph unicode="3" horiz-adv-x="983" d="M59 106l99 203q42 -44 129.5 -71t179.5 -27q94 0 160 56t78 145q9 59 -2 100t-34.5 66t-69 39.5t-93.5 19.5t-119 6h-53l31 221h53q78 0 135 8.5t106 29t78 60t37 97.5q10 72 -37.5 128t-146.5 56q-176 0 -314 -82l-40 205q86 62 184.5 87.5t228.5 25.5 q201 0 309.5 -114.5t83.5 -287.5q-15 -112 -84 -194.5t-184 -120.5q121 -33 175.5 -127t39.5 -229l-2 -13q-19 -133 -99.5 -228.5t-195.5 -140t-252 -44.5q-118 0 -220.5 32.5t-160.5 93.5z" />
<glyph unicode="4" horiz-adv-x="1163" d="M123 309l27 187l649 950h360l-129 -922h162l-43 -215h-150l-43 -309h-286l45 309h-592zM440 524h305l82 594z" />
<glyph unicode="5" horiz-adv-x="1042" d="M109 121l106 203q5 -5 14.5 -13t40 -28t61.5 -35.5t76.5 -28t88.5 -12.5q121 0 189.5 72t84.5 190q15 116 -31.5 190t-146.5 74q-40 0 -89.5 -18.5t-92.5 -59.5l-168 33l141 758h743l-45 -221h-530l-59 -326q104 39 200 39q183 0 280.5 -130.5t67.5 -342.5 q-32 -221 -171.5 -353t-362.5 -132q-60 0 -123 14.5t-110 35t-85.5 41.5t-58.5 35z" />
<glyph unicode="6" horiz-adv-x="1130" d="M113 461q10 65 32 126t59 119.5t63.5 94.5t72.5 92l467 553h340l-473 -539q60 11 80 11q210 0 325 -127t86 -332q-20 -144 -105 -254t-211 -167.5t-274 -57.5q-114 0 -207 33.5t-155 94.5t-89 152t-11 201zM395 446q-17 -118 33.5 -184.5t163.5 -66.5q117 0 192.5 69 t92.5 189q37 258 -207 258q-237 0 -275 -265z" />
<glyph unicode="7" horiz-adv-x="931" d="M197 0l596 1231h-570l31 215h864l-22 -164l-631 -1282h-268z" />
<glyph unicode="8" horiz-adv-x="1062" d="M102 389q36 248 283 371q-190 115 -158 338q18 124 93.5 211.5t183.5 128.5t237 41q130 0 227 -41t148 -128.5t33 -211.5q-32 -219 -240 -338q200 -124 164 -371q-14 -98 -64 -177t-123.5 -129t-164.5 -76.5t-191 -26.5q-136 0 -238 45.5t-155.5 139.5t-34.5 224z M360 401q-15 -104 36.5 -156t162.5 -52q112 0 178.5 53t81.5 157q14 107 -38.5 173t-151.5 96q-242 -69 -269 -271zM463 1085q-28 -200 186 -256q230 57 258 256q12 84 -43 132.5t-153 48.5t-167 -48.5t-81 -132.5z" />
<glyph unicode="9" horiz-adv-x="1155" d="M203 999q20 144 104.5 254.5t211 168t274.5 57.5q114 0 207 -33.5t155 -95t89 -152.5t11 -201q-10 -65 -32 -126t-59 -119.5t-63.5 -94.5t-72.5 -92l-469 -565h-340l475 551q-55 -10 -80 -10q-210 0 -325 127t-86 331zM494 1006q-37 -258 206 -258q236 0 273 264 q17 118 -33.5 185t-163.5 67q-117 0 -191 -69t-91 -189z" />
<glyph unicode=":" horiz-adv-x="425" d="M82 0l39 276h272l-39 -276h-272zM193 788l38 277h273l-39 -277h-272z" />
<glyph unicode=";" horiz-adv-x="403" d="M43 -326l133 570h232l-199 -570h-166zM211 788l39 277h272l-39 -277h-272z" />
<glyph unicode="&#x3c;" horiz-adv-x="1005" d="M102 494l19 124l1003 478l-30 -219l-699 -320l609 -309l-31 -219z" />
<glyph unicode="=" horiz-adv-x="1099" d="M109 283l26 196h971l-29 -196h-968zM158 639l26 199h971l-29 -199h-968z" />
<glyph unicode="&#x3e;" horiz-adv-x="1007" d="M43 39l33 219l696 303l-604 330l31 219l868 -492l-20 -129z" />
<glyph unicode="?" horiz-adv-x="839" d="M213 139q9 66 62 114t116 48t100.5 -48t28.5 -114t-60 -112.5t-114 -46.5t-102.5 46.5t-30.5 112.5zM233 1368q92 56 177.5 83.5t205.5 27.5q65 0 126 -21t111 -62t75 -110t12 -156q-9 -65 -41 -128.5t-81.5 -125t-102.5 -121t-120 -142t-118 -160.5h-112 q25 84 68.5 164.5t88.5 140.5t87.5 115.5t73.5 111t38 105.5q12 85 -31 137.5t-133 52.5q-143 0 -278 -86z" />
<glyph unicode="@" horiz-adv-x="1536" d="M133 571q47 326 301 566q110 102 259 166.5t308 64.5q142 0 254.5 -50t188.5 -136q83 -92 122.5 -220.5t16.5 -287.5q-25 -175 -114.5 -308t-213.5 -200q-79 -43 -159 -43q-132 0 -168 123q-111 -107 -232 -107q-133 0 -195.5 97.5t-41.5 244.5q15 106 65 203.5t121 169 t162.5 114t185.5 42.5q111 0 264 -60l21 -8l-8 -27q-16 -47 -74 -209.5t-84 -248.5q-14 -53 -18 -82q-6 -42 5 -58t44 -16q63 0 118.5 57.5t89 141.5t46.5 178q33 242 -80 377t-340 135q-16 24 -59 24q-53 0 -141.5 -46.5t-138 -82t-89.5 -67.5h-4q-25 0 -77 -94.5t-95 -202 t-49 -150.5q-40 -286 93 -454t402 -168q244 0 426 141l23 16l86 -126l-27 -21q-224 -188 -536 -188q-165 0 -301.5 60t-217.5 159q-190 232 -139 581zM662 471q-19 -147 83 -147h9q35 2 67.5 21t57 45t50.5 71.5t42.5 81.5t37.5 96t31.5 94.5t28.5 95.5q-70 9 -98 9 q-74 0 -141.5 -53t-110.5 -136t-57 -178z" />
<glyph unicode="A" horiz-adv-x="1216" d="M-10 0l702 1446h260l275 -1446h-260l-86 444h-400l-207 -444h-284zM567 627h275l-66 489z" />
<glyph unicode="B" horiz-adv-x="1236" d="M117 0l202 1446h465q100 0 177.5 -9.5t147 -34t111.5 -64.5t62 -106q12 -39 12 -87q0 -31 -6 -66q-14 -102 -70.5 -172.5t-148.5 -122.5q180 -85 179 -286q0 -35 -5 -74q-16 -112 -67.5 -195t-132.5 -132.5t-182 -73t-224 -23.5h-520zM430 203h197q152 0 233.5 50.5 t100.5 180.5q5 34 5 62q0 84 -44 124q-59 52 -209 52h-215zM524 870h213q123 0 189.5 37t79.5 131q4 24 4 45q0 25 -6 47q-10 38 -31 60t-64 33.5t-86.5 14.5t-113.5 3h-131z" />
<glyph unicode="C" horiz-adv-x="1196" d="M172 733q24 169 95.5 310t175.5 236t235 147.5t274 52.5q263 0 391 -142l-100 -211q-57 58 -125 87.5t-180 29.5q-179 0 -311 -139.5t-164 -372.5q-9 -69 -10 -128q1 -159 67 -257q90 -134 271 -135q196 0 344 108l36 -213q-108 -75 -210 -100.5t-220 -25.5 q-138 0 -252.5 51t-194 144.5t-113.5 237.5q-20 83 -20 177q0 68 11 143z" />
<glyph unicode="D" horiz-adv-x="1411" d="M117 0l202 1446h369q157 0 283 -24.5t226 -79t162 -138.5q61 -84 85 -206q12 -63 13 -136q0 -68 -11 -143q-32 -231 -154 -394.5t-306.5 -244t-416.5 -80.5h-452zM434 223h187q226 0 365 127t173 365q10 72 10 132q1 59 -9 107q-20 98 -82 157t-158 84.5t-238 25.5h-109z " />
<glyph unicode="E" horiz-adv-x="1060" d="M117 0l202 1446h883l-51 -219h-576l-51 -359h555l-30 -217h-555l-62 -432l627 -8l-41 -211h-901z" />
<glyph unicode="F" horiz-adv-x="976" d="M117 0l202 1446h852l-49 -219h-549l-53 -373h531l-31 -217h-528l-91 -637h-284z" />
<glyph unicode="G" horiz-adv-x="1337" d="M172 733q22 159 87.5 295t166 236.5t239 157.5t298.5 57q287 0 432 -142l-111 -194q-147 100 -336 100q-194 0 -320.5 -130.5t-164.5 -381.5q-10 -70 -10 -132q0 -72 13 -133q25 -115 104.5 -185t209.5 -70q145 0 250 57l45 316h-289l39 207h527l-95 -676 q-133 -66 -248.5 -100.5t-254.5 -34.5q-313 0 -472 204q-122 156 -122 394q0 74 12 155z" />
<glyph unicode="H" horiz-adv-x="1388" d="M117 0l202 1446h285l-82 -592h592l82 592h287l-203 -1446h-287l90 645h-589l-93 -645h-284z" />
<glyph unicode="I" horiz-adv-x="534" d="M129 0l203 1446h286l-202 -1446h-287z" />
<glyph unicode="J" horiz-adv-x="595" d="M-70 -303l15 215h75q103 0 142 46.5t57 170.5l184 1317h287l-184 -1307q-23 -167 -77.5 -260.5t-163 -137.5t-292.5 -44h-43z" />
<glyph unicode="K" horiz-adv-x="1239" d="M117 0l202 1446h285l-84 -602l555 602h338l-610 -660l465 -786h-330l-373 657l-82 -75l-82 -582h-284z" />
<glyph unicode="L" horiz-adv-x="946" d="M117 0l202 1446h285l-172 -1229h549l-47 -217h-817z" />
<glyph unicode="M" horiz-adv-x="1630" d="M117 0l202 1446h271l309 -911l561 911h264l-202 -1446h-256l135 950l-451 -743h-200l-244 751l-135 -958h-254z" />
<glyph unicode="N" horiz-adv-x="1363" d="M117 0l202 1446h238l502 -975l135 975h262l-203 -1446h-243l-496 975l-135 -975h-262z" />
<glyph unicode="O" horiz-adv-x="1501" d="M170 727q25 174 97.5 317t177.5 237.5t237.5 146t278.5 51.5q147 0 265 -51.5t196 -145.5q78 -96 110 -238q18 -79 17 -168q0 -71 -11 -149q-24 -173 -96 -315t-177 -236t-237 -145t-278 -51t-264 51t-196 145q-80 94 -112 236q-19 82 -18 174q0 68 10 141zM461 723 q-9 -67 -9 -127q0 -148 58 -246q82 -138 274 -139q193 0 314.5 138.5t154.5 373.5q10 70 10 132q-1 75 -15 139q-26 116 -107 182.5t-211 66.5q-192 0 -314 -141.5t-155 -378.5z" />
<glyph unicode="P" horiz-adv-x="1140" d="M117 0l202 1446h457q256 0 384 -111q103 -89 103 -255q0 -40 -6 -85q-67 -471 -583 -471q-127 0 -197 6l-76 -530h-284zM506 737q23 -2 151 -2q87 0 150 21t97.5 59t51 78.5t23.5 91.5q4 26 4 50q-1 82 -47 131q-60 63 -186 63h-175z" />
<glyph unicode="Q" horiz-adv-x="1593" d="M170 727q25 174 97.5 317t177.5 237.5t237.5 146t278.5 51.5q147 0 265 -51.5t196 -146t110 -237.5q17 -79 17 -168q0 -72 -11 -149q-24 -173 -96 -315t-177 -236t-237 -145t-278 -51t-264 51t-196.5 145t-111.5 236q-18 82 -18 174q0 68 10 141zM461 723q-9 -67 -9 -127 q0 -148 58 -246q82 -139 274 -139q193 0 314.5 138.5t154.5 373.5q10 70 10 132q0 75 -15 139q-26 115 -107 182t-211 67q-192 0 -314 -141.5t-155 -378.5zM823 -12l178 114q39 -104 98.5 -201t168.5 -220l-164 -150q-82 70 -159 201.5t-122 255.5z" />
<glyph unicode="R" horiz-adv-x="1230" d="M117 0l202 1446h527q62 0 113.5 -4t100.5 -13t85.5 -24.5t69.5 -38.5t53 -54t34 -72q14 -40 13.5 -89t-6.5 -117q-41 -289 -301 -383q10 -15 19 -29.5t17.5 -33t13.5 -29t13.5 -35t11 -31.5t13 -38t12.5 -37l135 -418h-299l-98 344l-82 252q-12 2 -84 2h-193l-84 -598 h-286zM516 809h248q130 0 196.5 51.5t83.5 169.5q3 22 3 42q-1 70 -43 108q-54 48 -175 49h-254z" />
<glyph unicode="S" horiz-adv-x="1126" d="M76 104l104 218q67 -49 176.5 -81t221.5 -32q254 0 276 172q2 18 2 35q0 28 -6 50q-10 36 -39.5 60.5t-58.5 39.5t-80 34l-164 62q-55 20 -97 41t-84.5 55.5t-67.5 75.5t-37 101q-6 32 -6 68q0 31 5 64q14 101 65 180.5t126.5 129.5t168.5 76t197 26q296 0 430 -115 l-100 -201q-125 90 -360 90q-214 0 -236 -157q-3 -20 -3 -37q0 -49 23 -77q31 -38 99 -64l176 -66q87 -33 140 -61.5t111 -78t80 -123.5q13 -45 12 -99q0 -35 -5 -74q-21 -144 -107 -244t-210 -146t-277 -46q-308 0 -475 124z" />
<glyph unicode="T" horiz-adv-x="1021" d="M147 1227l29 219h1073l-30 -219h-394l-172 -1227h-286l172 1227h-392z" />
<glyph unicode="U" horiz-adv-x="1310" d="M178 539l127 907h287l-125 -893q-10 -66 -10 -118q-1 -94 31 -146q48 -80 200 -80q150 0 220.5 79.5t97.5 264.5l124 893h287l-127 -907q-39 -273 -198 -416t-437 -143t-397 143q-90 108 -90 289q0 60 10 127z" />
<glyph unicode="V" horiz-adv-x="1234" d="M193 1446h276l209 -1088l496 1088h276l-705 -1446h-243z" />
<glyph unicode="W" horiz-adv-x="1949" d="M190 1446h275l117 -1059l483 1059h227l154 -1069l446 1069h275l-643 -1446h-262l-140 1063l-479 -1063h-258z" />
<glyph unicode="X" horiz-adv-x="1253" d="M-33 0l606 729l-356 717h311l242 -526l408 526h292l-575 -715l389 -731h-326l-258 524l-424 -524h-309z" />
<glyph unicode="Y" horiz-adv-x="1161" d="M170 1446h287l245 -604l414 604h283l-586 -860l-84 -586h-285l82 586z" />
<glyph unicode="Z" horiz-adv-x="1126" d="M55 0l25 172l848 1055h-670l31 219h1014l-23 -160l-854 -1069h696l-28 -217h-1039z" />
<glyph unicode="[" horiz-adv-x="579" d="M90 -188l248 1757h432l-25 -183h-147l-197 -1392h148l-25 -182h-434z" />
<glyph unicode="\" horiz-adv-x="903" d="M238 1460h208l412 -1579h-209z" />
<glyph unicode="]" horiz-adv-x="573" d="M4 -188l27 182h147l197 1392h-148l25 183h434l-248 -1757h-434z" />
<glyph unicode="^" horiz-adv-x="1097" d="M117 551l573 891h119l330 -891h-201l-223 641l-398 -641h-200z" />
<glyph unicode="_" horiz-adv-x="1064" d="M23 -324l24 189h936l-27 -189h-933z" />
<glyph unicode="`" horiz-adv-x="452" d="M176 1516h301l172 -340h-200q-51 65 -145.5 182t-127.5 158z" />
<glyph unicode="a" horiz-adv-x="980" d="M98 270q7 48 20 87t35 69.5t46 54t62 42t72.5 31.5t89 25t100.5 20t116 19l66 13l6 43q6 43 6 74q-1 10 -1 18q-2 36 -29 54.5t-87 21.5q-114 0 -317 -66l-25 195q171 80 408 80q172 0 258 -83q67 -65 68 -180q0 -31 -5 -65l-100 -723h-209l-10 115q-81 -67 -151 -101 t-157 -34q-135 0 -208 78q-58 62 -58 159q0 26 4 53zM344 283q-2 -14 -2 -26q0 -39 18 -63q24 -32 80 -32q41 0 78.5 11.5t61.5 25t69 43.5l33 229l-68 -12q-50 -7 -80 -13t-68 -19t-60 -30.5t-39.5 -46t-22.5 -67.5z" />
<glyph unicode="b" horiz-adv-x="1134" d="M96 0l211 1497h273l-86 -608q36 66 116 113.5t189 48.5q130 0 217.5 -75t118.5 -194q18 -71 18 -150q0 -54 -8 -112q-33 -231 -170.5 -385.5t-319.5 -154.5q-100 0 -170 47.5t-96 122.5l-24 -150h-269zM432 354q6 -62 34.5 -99t63.5 -52t80 -15t85.5 16t80 51t68 101 t41.5 156q8 49 8 90q-1 24 -3 45q-8 57 -23.5 94.5t-43.5 60t-57.5 31.5t-63.5 9q-43 0 -83 -17t-77.5 -53t-65 -102.5t-40.5 -157.5q-7 -60 -7 -107q1 -28 3 -51z" />
<glyph unicode="c" horiz-adv-x="841" d="M131 526q18 127 72 229.5t130.5 165.5t166 96.5t182.5 33.5q90 -1 151 -25t109 -72l-63 -182q-31 26 -86.5 48t-110.5 22q-107 0 -187.5 -81.5t-103.5 -244.5q-7 -52 -7 -95q0 -237 210 -237q113 0 217 74l18 -184q-71 -48 -138 -71t-152 -23q-105 0 -187.5 33.5 t-139.5 99.5q-56 65 -78 171q-12 57 -12 123q0 56 9 119z" />
<glyph unicode="d" horiz-adv-x="1128" d="M131 520q21 145 86.5 264t175 193t242.5 74q111 0 171.5 -46.5t82.5 -115.5l86 608h270l-211 -1497h-264l14 150q-101 -170 -282 -170q-137 3 -230 75q-92 73 -128 193q-22 74 -21 160q0 54 8 112zM390 356q8 -62 39 -100t66.5 -53t79.5 -15q97 0 168 74t97 250 q8 55 8 100q0 98 -36 152q-52 78 -146 78q-43 0 -83 -15.5t-79.5 -50.5t-69.5 -102.5t-43 -161.5q-5 -51 -5 -92q0 -35 4 -64z" />
<glyph unicode="e" horiz-adv-x="1011" d="M129 514q22 151 94.5 271.5t192 193t264.5 72.5q86 0 154 -27.5t110 -75.5t68 -114q26 -65 30 -140q1 -19 1 -39q0 -57 -7 -118l-12 -84h-635q-3 -27 -3 -52q0 -95 46 -149q58 -68 182 -68q82 0 156 25t125 61l51 -166q-162 -124 -375 -124q-247 0 -361 142 q-88 110 -89 284q0 51 8 108zM412 594h389q5 37 5 68q0 71 -26 116q-38 64 -127 64q-33 0 -66 -11.5t-68 -38t-63.5 -77.5t-43.5 -121z" />
<glyph unicode="f" horiz-adv-x="622" d="M125 842l22 168h148l4 37q10 75 20 127t26.5 108.5t38 93t54 72t75 55t101 31.5t131.5 12h86l-10 -211h-78q-78 0 -110.5 -48t-50.5 -171l-17 -106h205l-25 -168h-202l-119 -842h-270l116 842h-145z" />
<glyph unicode="g" horiz-adv-x="1136" d="M135 522q18 126 70.5 229.5t124.5 167t153.5 98t163.5 34.5q186 0 252 -146l16 105h271l-137 -965q-20 -144 -61 -241t-118 -164t-193.5 -97t-285.5 -30h-123l13 219h96q70 0 102.5 1t81 6.5t70.5 18.5t51.5 35t44 57.5t29 86t24.5 120.5l13 86q-52 -68 -118 -105.5 t-171 -37.5q-91 0 -166.5 35.5t-126.5 100.5t-72 165q-12 55 -12 117q0 50 8 104zM395 520q-5 -37 -5 -70q0 -91 40 -156q54 -87 156 -87q99 0 174.5 85t95.5 228q0 2 1 6t1 6q5 37 5 70q0 94 -39 156q-52 82 -150 84q-113 0 -185 -85.5t-94 -236.5z" />
<glyph unicode="h" horiz-adv-x="1067" d="M92 0l211 1497h242l-84 -604q162 158 327 158q70 0 125.5 -22.5t97.5 -74t55 -134.5q6 -40 6 -89q0 -53 -7 -115l-86 -616h-270l84 602q7 61 7 107v21q-2 54 -29 83t-81 29q-71 0 -143 -49.5t-119 -118.5l-94 -674h-242z" />
<glyph unicode="i" horiz-adv-x="497" d="M117 0l147 1063h273l-150 -1063h-270zM291 1245l33 234h272l-33 -234h-272z" />
<glyph unicode="j" horiz-adv-x="499" d="M-90 -401l4 208h49q96 0 129 41.5t51 169.5l146 1045h270l-137 -981q-15 -105 -32.5 -175t-50 -133t-80 -98.5t-120.5 -56t-174 -20.5h-55zM315 1245l33 234h270l-32 -234h-271z" />
<glyph unicode="k" horiz-adv-x="1021" d="M92 0l211 1497h270l-116 -838l397 404h324l-459 -436l379 -627h-357l-241 518l-72 -55l-63 -463h-273z" />
<glyph unicode="l" horiz-adv-x="602" d="M157 268v24q0 75 15 163l143 1024l275 18l-152 -1081q-11 -62 -11 -104q1 -42 11 -66q22 -48 113 -47q12 0 21.5 0.5t14.5 1t8 1t4 0.5l1 1l-16 -203q-52 -12 -138 -12q-106 0 -171.5 34.5t-90 97t-27.5 148.5z" />
<glyph unicode="m" horiz-adv-x="1640" d="M92 0l144 1010h202l2 -142q62 76 155 128t189 55q96 0 154 -48t78 -133q160 181 360 181q89 0 149 -33t87.5 -90.5t35.5 -136.5q3 -26 2 -54q0 -55 -10 -116l-86 -621h-268l78 557q15 89 15 150q0 39 -6 65q-16 70 -91 70q-143 -5 -240 -160l-96 -682h-268l82 575 q10 81 10 139t-26 92q-26 36 -85 36q-123 0 -229 -158l-94 -684h-244z" />
<glyph unicode="n" horiz-adv-x="1095" d="M92 0l111 791l30 219h228l2 -142q71 80 167 132q94 51 193 51h4q165 -3 231 -121q46 -82 46 -203q0 -52 -8 -111l-86 -616h-273l82 584q6 42 8.5 68t3 60t-6.5 54t-20 39.5t-37.5 28t-59.5 8.5q-65 0 -135 -48t-111 -112l-96 -682h-273z" />
<glyph unicode="o" d="M129 512q33 242 178.5 390.5t374.5 148.5q115 0 200.5 -40t133.5 -112q49 -73 66 -171q9 -51 9 -106q0 -53 -8 -110q-33 -238 -179 -385t-374 -147q-115 0 -200.5 40t-134 111t-65.5 168q-9 50 -9 105q0 52 8 108zM389 512q-8 -51 -8 -95q1 -91 33 -147q48 -84 147 -84 t169 84t93 242q8 52 8 96q-1 91 -33 149q-48 85 -145.5 85t-169 -85t-94.5 -245z" />
<glyph unicode="p" horiz-adv-x="1132" d="M39 -410l199 1420h245v-142q55 98 130 140.5t175 42.5q84 0 151.5 -30t109.5 -81.5t69.5 -120t31.5 -145.5q1 -23 1 -47q0 -54 -6 -109q-21 -148 -86 -268t-173.5 -194.5t-242.5 -75.5q-196 0 -258 151l-72 -512zM432 354q8 -62 38.5 -99t67 -52t83.5 -15q43 0 82.5 16.5 t76 52.5t63.5 101t40 154q8 51 8 93q0 22 -2 42q-7 57 -22 94.5t-42.5 60t-56.5 31.5t-63 9q-44 0 -84 -17t-78 -53t-66 -102.5t-41 -157.5q-7 -56 -7 -101q0 -31 3 -57z" />
<glyph unicode="q" horiz-adv-x="1128" d="M131 518q14 101 54.5 195t102.5 170t153 122t196 46q100 0 164 -42.5t92 -140.5l39 142h244l-195 -1389l-274 -31l77 560q-60 -86 -129 -128t-178 -42q-133 1 -220 75.5t-117 194.5q-18 71 -18 151q0 56 9 117zM390 356q8 -63 39 -100.5t66.5 -52.5t79.5 -15q97 0 168 74 t97 250q8 55 8 100q0 99 -36 152q-52 78 -146 78q-43 0 -83 -15.5t-79.5 -50.5t-69.5 -102.5t-43 -161.5q-5 -51 -5 -92q0 -36 4 -64z" />
<glyph unicode="r" horiz-adv-x="608" d="M92 0l111 784l33 226h249v-146q58 76 114 111t138 35h25l-19 -215h-63q-63 0 -106.5 -17t-69.5 -51.5t-40 -76t-22 -101.5l-77 -549h-273z" />
<glyph unicode="s" horiz-adv-x="808" d="M61 88l72 178q48 -37 134 -59.5t159 -22.5q55 0 92.5 25t44.5 78q2 12 2 22q0 26 -11 41q-15 21 -65 43l-129 58q-69 29 -112.5 63t-67.5 93q-17 41 -17 91q0 23 3 47q21 151 125.5 228.5t263.5 77.5q204 0 303 -86l-70 -181q-41 27 -115.5 45.5t-129.5 18.5 q-74 0 -112.5 -20.5t-47.5 -63.5q-4 -18 -3 -32q0 -26 12 -40q18 -22 81 -47l141 -53q97 -38 155 -110q45 -57 46 -134q0 -22 -4 -45q-20 -137 -116 -229t-253 -92q-264 0 -381 106z" />
<glyph unicode="t" horiz-adv-x="688" d="M90 840l39 170h145l127 440h205l-61 -440h223l-23 -170h-225l-57 -418q-12 -68 -12 -113q1 -37 9 -59q18 -46 113 -47l78 6l-16 -209q-97 -12 -146 -12q-146 0 -218.5 49t-84.5 147q-5 38 -5 82q0 72 12 162l57 412h-160z" />
<glyph unicode="u" horiz-adv-x="1056" d="M137 385l96 678h273l-96 -674q-4 -29 -4 -54q0 -67 28 -101q38 -48 121 -48q174 0 201 203l94 674h270l-94 -678q-19 -134 -89 -226t-174.5 -135.5t-238.5 -43.5q-205 0 -310 102q-83 80 -83 222q0 38 6 81z" />
<glyph unicode="v" horiz-adv-x="944" d="M152 1063h254l135 -766l301 766h252l-484 -1063h-225z" />
<glyph unicode="w" horiz-adv-x="1503" d="M152 1063h272l65 -682l312 682h211l86 -678l286 678h265l-504 -1063h-203l-84 766l-338 -766h-201z" />
<glyph unicode="x" horiz-adv-x="1062" d="M25 0l428 539l-260 524h296l148 -367l260 367h283l-414 -520l276 -543h-305l-145 377l-275 -377h-292z" />
<glyph unicode="y" horiz-adv-x="919" d="M-10 -410l6 203h63q102 0 128 6q56 14 97 78q31 50 72 158l-223 1028h246l139 -709l305 709h252l-532 -1135q-64 -137 -128.5 -211t-134.5 -100.5t-174 -26.5h-116z" />
<glyph unicode="z" horiz-adv-x="835" d="M59 0l23 162l508 667h-391l24 181h690l-20 -146l-508 -676h426l-27 -188h-725z" />
<glyph unicode="{" horiz-adv-x="747" d="M127 526l33 238h90q62 0 88 47t41 154l39 286q11 81 43 138.5t83 90.5t113 47.5t142 14.5h94l-31 -217h-28q-30 0 -50 -3t-35 -13t-24 -20t-16 -33.5t-10.5 -43.5t-8.5 -59l-35 -240q-18 -126 -77 -187t-158 -81q94 -20 137 -81t25 -187l-35 -242q-19 -98 -3 -134t99 -36 h29l-33 -219h-94q-164 0 -241.5 67.5t-55.5 225.5l41 287q18 97 4 148.5t-76 51.5h-90z" />
<glyph unicode="|" horiz-adv-x="344" d="M29 -281l250 1780h215l-250 -1780h-215z" />
<glyph unicode="}" horiz-adv-x="747" d="M41 -254l31 219h28q36 0 58.5 6t37 15t24 33.5t14 47t10.5 68.5l35 242q18 126 77 187t158 81q-94 20 -137 81t-25 187l35 240q19 98 3 135t-99 37h-29l33 217h94q164 0 241.5 -66.5t55.5 -224.5l-41 -286q-18 -97 -4 -149t76 -52h90l-33 -238h-90q-62 0 -88 -46.5 t-41 -153.5l-39 -287q-22 -158 -119.5 -225.5t-261.5 -67.5h-94z" />
<glyph unicode="~" horiz-adv-x="1325" d="M227 442l9 23q35 106 121.5 180t203.5 74q52 0 104.5 -16t88 -35.5t80 -44t71.5 -35.5q21 -8 41 -8q47 0 83 38t58 93l6.5 13t6.5 17l160 -55l-11 -24q-42 -117 -125.5 -197t-203.5 -80q-58 0 -112.5 21.5t-90.5 47.5t-84 48.5t-94 23.5v-2h-2q-54 0 -93.5 -33t-60.5 -83 l-10 -37z" />
<glyph unicode="&#xa1;" horiz-adv-x="706" d="M225 -385l160 1139h199l-160 -1139h-199zM350 834l37 266h252l-37 -266h-252z" />
<glyph unicode="&#xa2;" horiz-adv-x="964" d="M166 625q-19 -136 3 -241.5t78 -171.5t138.5 -100t187.5 -34q86 0 153 23t138 71l-18 184q-103 -73 -217 -73q-249 0 -203 331q23 163 103.5 244.5t187.5 81.5q55 0 110 -22t86 -48l64 183q-48 48 -108.5 71.5t-151.5 24.5q-74 0 -146 -20.5t-139 -63t-121 -103.5 t-92.5 -147.5t-52.5 -189.5zM496 -197l229 1643h98l-229 -1643h-98z" />
<glyph unicode="&#xa3;" horiz-adv-x="1042" d="M66 168l22 8q86 36 126.5 93.5t57.5 174.5l27 187h-174l27 190h174l12 84q14 104 38 187.5t65.5 157.5t98.5 124t138.5 78.5t183.5 28.5q119 0 200.5 -50t125.5 -137l6 -18l-135 -141q-50 66 -98.5 100.5t-126.5 34.5q-110 0 -169 -73t-79 -210l-23 -164h352l-26 -192 h-352l-19 -127q-25 -184 -104 -295h614l-29 -209h-925z" />
<glyph unicode="&#xa4;" horiz-adv-x="825" d="M145 664q33 228 207 346l-100 272l94 37l88 -252q61 20 135 20q39 0 101 -12l121 246q17 -7 44.5 -20t36.5 -17l-129 -260q162 -111 129 -354q-14 -102 -63 -185t-119 -139l101 -274l-89 -41l-90 272q-81 -33 -161 -33q-51 0 -89 6l-116 -245l-74 39l113 235 q-82 51 -120 142.5t-20 216.5zM289 666q-18 -132 25.5 -208.5t154.5 -76.5q108 0 172 74t84 200l2 11q20 135 -23 211.5t-157 76.5q-109 0 -174.5 -78.5t-83.5 -209.5z" />
<glyph unicode="&#xa5;" horiz-adv-x="1222" d="M170 1446h287l245 -604l414 604h283l-586 -860l-84 -586h-285l82 586zM176 287l23 162h913l-22 -162h-914zM217 575l23 162h913l-23 -162h-913z" />
<glyph unicode="&#xa6;" horiz-adv-x="493" d="M102 -279l88 629h216l-89 -629h-215zM262 868l90 631h215l-90 -631h-215z" />
<glyph unicode="&#xa7;" horiz-adv-x="860" d="M76 0l37 268q47 -32 78.5 -50.5t84.5 -35t109 -16.5q87 0 139 27.5t58 72.5q5 35 -18 63.5t-63.5 50t-90.5 43t-99 48.5t-87.5 60.5t-58.5 85.5t-11 116q21 150 165 242q-86 89 -67 229q12 83 54.5 145.5t105.5 99t135.5 54t152.5 17.5q31 0 58.5 -2.5t55.5 -9.5 t44 -11.5t48 -15.5t44 -15l-32 -264q-5 3 -28.5 16t-31.5 17t-29.5 14.5t-35 14.5t-34 10t-41 8t-42.5 2q-165 0 -174 -80q-6 -40 16.5 -71t62 -52.5t88.5 -41.5t97.5 -45t87 -57t58 -83t10.5 -117q-19 -139 -164 -245q97 -83 78 -222q-12 -85 -57.5 -151.5t-112.5 -106.5 t-145 -60t-161 -20q-81 0 -146 17.5t-138 50.5zM391 743q-3 -21 1 -39t17 -33t25.5 -26.5t36.5 -24t38.5 -19.5t43.5 -19q57 34 89 67t38 76q3 25 -4 45t-28.5 35.5t-38.5 25t-52 25t-51 23.5q-51 -30 -80 -61.5t-35 -74.5z" />
<glyph unicode="&#xa8;" horiz-adv-x="724" d="M233 1231l37 266h201l-39 -266h-199zM635 1231l37 266h200l-36 -266h-201z" />
<glyph unicode="&#xa9;" horiz-adv-x="1566" d="M178 727q22 154 97.5 293.5t184.5 240t248.5 159.5t284.5 59q192 0 341.5 -100t221.5 -273.5t43 -378.5q-22 -154 -98 -292.5t-185.5 -238t-248.5 -158t-283 -58.5q-194 0 -343.5 99t-220.5 271t-42 377zM291 727q-24 -176 34.5 -324t184 -234.5t289.5 -86.5 q163 0 313 86.5t250.5 235t124.5 323.5t-34.5 324t-183.5 236t-288 87q-164 0 -314.5 -87t-251 -236t-124.5 -324zM455 729q30 205 166.5 346.5t316.5 141.5q167 0 266 -80l-55 -113q-103 68 -219 68q-129 0 -220 -106t-112 -259q-14 -96 4.5 -173t77 -126t151.5 -49 q117 0 236 67l25 -116q-122 -80 -287 -80q-181 0 -280 135t-70 344z" />
<glyph unicode="&#xaa;" horiz-adv-x="671" d="M184 954q5 35 15.5 64t23 51.5t33 41t37.5 31t45.5 23.5t47.5 17t53 12t53 8.5t56.5 7.5t53.5 7q5 64 -7.5 83t-64.5 19q-51 0 -84 -20t-63 -62l-27 -33l-84 121q104 162 287 162q114 0 176.5 -72t42.5 -201l-47 -319q-3 -19 -10 -127l-2 -33h-176l2 37q-72 -55 -154 -55 h-4q-99 0 -159 63.5t-44 173.5zM367 956q-4 -39 12 -57t55 -18q58 0 91.5 45t54.5 129q-15 -2 -42.5 -6t-42.5 -6t-37 -7t-34.5 -11t-26 -15.5t-20.5 -22.5t-10 -31z" />
<glyph unicode="&#xab;" horiz-adv-x="880" d="M109 547l317 377h219l-315 -377l200 -377h-217zM442 547l324 377h215l-311 -377l196 -377h-211z" />
<glyph unicode="&#xac;" horiz-adv-x="1325" d="M262 608l29 201h973l-80 -571h-195l53 370h-780z" />
<glyph unicode="&#xad;" horiz-adv-x="665" d="M127 432l29 195h534l-26 -195h-537z" />
<glyph unicode="&#xae;" horiz-adv-x="1570" d="M178 727q22 154 98 293.5t186 240t250 159.5t285 59q144 0 267.5 -59t205 -159.5t119 -240t15.5 -293.5q-29 -205 -149.5 -377.5t-298 -271t-370.5 -98.5q-145 0 -268.5 58.5t-205.5 158t-119 238t-15 292.5zM291 727q-24 -176 34.5 -324t184.5 -234.5t291 -86.5 q164 0 314.5 86.5t251 235t124.5 323.5t-35 324t-185 236t-290 87q-165 0 -315.5 -87t-250.5 -235.5t-124 -324.5zM537 260l133 948h291q143 0 216 -60.5t54 -197.5q-15 -112 -66 -170t-157 -86q51 -102 168 -434h-162l-82 232l-62 186h-129l-59 -418h-145zM758 803h106 q106 0 159.5 28.5t66.5 118.5q7 48 -1.5 76t-39.5 40t-60.5 14.5t-91.5 2.5h-98z" />
<glyph unicode="&#xaf;" horiz-adv-x="821" d="M283 1335l22 162h651l-22 -162h-651z" />
<glyph unicode="&#xb0;" horiz-adv-x="792" d="M244 1153q19 129 121 214t231 85t209.5 -82.5t60.5 -216.5q-18 -129 -121.5 -214t-232.5 -85t-208 86t-60 213zM416 1155q-8 -56 26 -90.5t95 -34.5t105 35.5t52 89.5q7 52 -24.5 86t-87.5 37h-11q-61 0 -104 -35t-51 -88z" />
<glyph unicode="&#xb1;" horiz-adv-x="1349" d="M178 0l29 199h391l51 370h-389l14 199h402l49 348h209l-49 -348h395l-27 -199h-391l-51 -370h393l-28 -199h-998z" />
<glyph unicode="&#xb2;" horiz-adv-x="755" d="M174 553l21 143l113 113q205 204 264.5 274t66.5 129q6 44 -15.5 65t-60.5 21q-52 0 -109.5 -30t-105.5 -78l-78 141q1 3 15.5 17t44.5 36.5t66.5 43.5t88 36t103.5 15q133 0 204.5 -69t53.5 -193q-7 -48 -25.5 -94t-49 -87.5t-61 -75.5t-75 -71.5t-75 -61.5t-78 -58.5 t-68.5 -51.5h344l-23 -164h-561z" />
<glyph unicode="&#xb3;" horiz-adv-x="741" d="M170 621l80 141q3 -2 18 -9t20 -9.5t19 -9t21 -9l21 -7.5t24 -7t24 -4.5t27.5 -3.5t28.5 -1q56 0 92.5 34.5t42.5 84.5q6 48 -18.5 83.5t-75.5 35.5h-119l20 152h119q111 0 125 106q7 57 -18.5 85t-73.5 28q-18 0 -35.5 -2.5t-31 -5t-32 -9.5t-27.5 -10t-29 -13.5 t-25 -13.5t-27 -15.5t-25 -14.5l-61 123q148 129 321 129q80 0 140.5 -24t94.5 -82.5t21 -145.5q-9 -70 -47.5 -121.5t-101.5 -77.5q63 -40 87.5 -93.5t14.5 -131.5q-19 -137 -114.5 -205t-225.5 -68q-159 0 -274 91z" />
<glyph unicode="&#xb4;" horiz-adv-x="589" d="M369 1176l213 383h301l-353 -383h-161z" />
<glyph unicode="&#xb6;" horiz-adv-x="1171" d="M252 1120q11 81 48.5 142t90 98.5t125 60t146 31t161.5 8.5h381l-24 -182h-76l-203 -1425h-174l201 1425h-133l-199 -1425h-209l127 907q-144 15 -214 113t-48 247z" />
<glyph unicode="&#xb7;" horiz-adv-x="385" d="M131 463l39 270h256l-39 -270h-256z" />
<glyph unicode="&#xb8;" horiz-adv-x="548" d="M-4 -340l172 367h156l-111 -367h-217z" />
<glyph unicode="&#xb9;" horiz-adv-x="653" d="M184 553l25 170h125l74 520l-140 -24l27 167q67 17 194 60l156 18l-102 -741h125l-25 -170h-459z" />
<glyph unicode="&#xba;" horiz-adv-x="765" d="M197 1104q25 172 133.5 277.5t265.5 105.5q158 0 234 -106t51 -279q-25 -172 -131.5 -278.5t-262.5 -106.5q-161 0 -238 106t-52 281zM383 1104q-30 -219 129 -219q80 0 126 57.5t60 157.5q30 219 -129 219q-78 0 -124 -56t-60 -151z" />
<glyph unicode="&#xbb;" horiz-adv-x="1085" d="M164 170l313 377l-201 377h216l210 -377l-321 -377h-217zM524 170l314 377l-199 377h215l203 -377l-318 -377h-215z" />
<glyph unicode="&#xbc;" horiz-adv-x="1888" d="M301 584l33 219h106l29 217q13 87 20 147l3 17q-57 -23 -74 -29l-68 -27l35 228l33 10q77 24 151 70v4q7 0 13 6l2 -4l155 22l-94 -673h121l-29 -207h-436zM383 0l1165 1446h203q-4 -4 -4 -6l-1151 -1440h-213zM1018 201l18 125l443 518h166l-66 -477h92l-8 -166h-111 l-22 -164h-166l20 164h-366zM1266 367h141l29 202z" />
<glyph unicode="&#xbd;" horiz-adv-x="1779" d="M324 604l24 178h109l59 435q-69 -33 -141 -60l24 182q22 6 69 26t84 37l36 17l131 23l-94 -672h118l-22 -166h-397zM332 0l1159 1446h209q-4 -4 -4 -6l-1157 -1440h-207zM983 -25l21 144q25 19 94 66.5t122.5 87t113.5 91t97 103.5t44 100q5 37 -19 56.5t-76 19.5 q-65 0 -105.5 -38.5t-82.5 -112.5l-115 122q118 207 338 207q120 0 185.5 -63.5t50.5 -175.5q-5 -34 -15 -66t-27 -62t-33 -54t-42.5 -51t-44 -45t-49.5 -43.5t-48 -37.5t-49.5 -36.5t-44.5 -32.5h291l-24 -179h-582z" />
<glyph unicode="&#xbe;" horiz-adv-x="1812" d="M256 709l104 147l23 -27q60 -69 133 -69q60 0 98.5 25t44.5 69q7 52 -31 72t-122 20q-1 0 -11 -1t-16 -1h-53l25 180h73q75 0 114.5 17.5t45.5 60.5q5 37 -15 53.5t-71 16.5q-79 0 -166 -72l-31 -22l-57 145l16 16q50 48 120 79.5t145 31.5t132.5 -28t87.5 -84.5 t19 -131.5v-2q-19 -104 -96 -168q79 -69 63 -188q-18 -123 -113.5 -192.5t-221.5 -69.5q-146 0 -228 106zM332 -23l1175 1479v8h250q-4 -6 -14 -19.5t-14 -19.5l-1145 -1448h-252zM973 203l18 125l443 518h165l-67 -477h94l-8 -166h-111l-22 -164h-168l22 164h-366z M1221 369h141l29 202z" />
<glyph unicode="&#xbf;" horiz-adv-x="1064" d="M336 338q11 79 60.5 162.5t109 149t146 169.5t147.5 197h112q-25 -84 -68.5 -164.5t-88.5 -140.5t-87.5 -115.5t-73.5 -111t-38 -105.5q-12 -85 31 -138t133 -53q143 0 278 86l45 -174q-92 -56 -177.5 -83t-205.5 -27q-65 0 -126 21t-110.5 61.5t-74.5 109.5t-12 156z M756 1329q9 66 60 113t114 47t102.5 -47t30.5 -113t-62 -114t-116 -48t-100.5 48t-28.5 114z" />
<glyph unicode="&#xc0;" horiz-adv-x="1298" d="M-10 0l702 1446h260l275 -1446h-260l-86 444h-400l-207 -444h-284zM537 1939h301l172 -340h-201q-52 66 -148.5 186t-123.5 154zM567 627h275l-66 489z" />
<glyph unicode="&#xc1;" horiz-adv-x="1298" d="M-10 0l702 1446h260l275 -1446h-260l-86 444h-400l-207 -444h-284zM567 627h275l-66 489zM829 1599l213 383h301l-352 -383h-162z" />
<glyph unicode="&#xc2;" horiz-adv-x="1298" d="M-10 0l702 1446h260l275 -1446h-260l-86 444h-400l-207 -444h-284zM537 1599l299 383h186l190 -383h-180l-133 201l-186 -201h-176zM567 627h275l-66 489z" />
<glyph unicode="&#xc3;" horiz-adv-x="1298" d="M-10 0l702 1446h260l275 -1446h-260l-86 444h-400l-207 -444h-284zM561 1608q4 30 7.5 49.5t12.5 52.5t22 54.5t33 44t50 33.5t68 11q54 0 116 -19.5t110 -39.5t67 -20q42 0 53 79h153q-4 -34 -8.5 -58t-18 -62.5t-32.5 -63t-53.5 -43t-79.5 -18.5t-112 22t-119 44 t-62 22q-23 0 -36 -20.5t-19 -67.5h-152zM567 627h275l-66 489z" />
<glyph unicode="&#xc4;" horiz-adv-x="1298" d="M-10 0l702 1446h260l275 -1446h-260l-86 444h-400l-207 -444h-284zM567 627h275l-66 489zM582 1602l36 266h201l-39 -266h-198zM983 1602l37 266h201l-37 -266h-201z" />
<glyph unicode="&#xc5;" horiz-adv-x="1298" d="M-10 0l702 1446h260l275 -1446h-260l-86 444h-400l-207 -444h-284zM567 627h275l-66 489zM696 1651q-11 -85 37 -148t148 -63t165 63t76 148q11 84 -36 144t-148 60q-102 0 -166.5 -60t-75.5 -144zM811 1651q7 45 36.5 77.5t76.5 32.5t69.5 -33t16.5 -77q-7 -45 -38 -78 t-79 -33q-47 0 -68 33t-14 78z" />
<glyph unicode="&#xc6;" horiz-adv-x="1798" d="M23 14l942 1446h927l-28 -207h-615l-26 -399h546l-28 -207h-531v-10l-26 -414h555l-31 -209h-731l24 359h-503l-240 -359h-235zM623 582h389l49 682z" />
<glyph unicode="&#xc7;" horiz-adv-x="1275" d="M172 733q24 169 95.5 310t175.5 236t235 147.5t274 52.5q263 0 391 -142l-100 -211q-57 58 -125 87.5t-180 29.5q-179 0 -311 -139.5t-164 -372.5q-34 -251 56.5 -385.5t271.5 -134.5q196 0 344 108l36 -213q-108 -75 -210 -100.5t-220 -25.5q-138 0 -252.5 51 t-194 144.5t-113.5 237.5t-9 320zM514 -375l172 367h156l-111 -367h-217z" />
<glyph unicode="&#xc8;" horiz-adv-x="1128" d="M117 0l202 1446h883l-51 -219h-576l-51 -359h555l-30 -217h-555l-62 -432l627 -8l-41 -211h-901zM406 1939h301l172 -340h-201q-52 66 -148.5 186t-123.5 154z" />
<glyph unicode="&#xc9;" horiz-adv-x="1128" d="M117 0l202 1446h883l-51 -219h-576l-51 -359h555l-30 -217h-555l-62 -432l627 -8l-41 -211h-901zM696 1599l213 383h301l-352 -383h-162z" />
<glyph unicode="&#xca;" horiz-adv-x="1128" d="M117 0l202 1446h883l-51 -219h-576l-51 -359h555l-30 -217h-555l-62 -432l627 -8l-41 -211h-901zM406 1599l299 383h186l190 -383h-180l-133 201l-186 -201h-176z" />
<glyph unicode="&#xcb;" horiz-adv-x="1128" d="M117 0l202 1446h883l-51 -219h-576l-51 -359h555l-30 -217h-555l-62 -432l627 -8l-41 -211h-901zM449 1602l36 266h201l-39 -266h-198zM850 1602l37 266h200l-36 -266h-201z" />
<glyph unicode="&#xcc;" horiz-adv-x="565" d="M84 1939h301l172 -340h-201q-52 66 -148.5 186t-123.5 154zM129 0l203 1446h286l-202 -1446h-287z" />
<glyph unicode="&#xcd;" horiz-adv-x="565" d="M129 0l203 1446h286l-202 -1446h-287zM375 1599l213 383h301l-352 -383h-162z" />
<glyph unicode="&#xce;" horiz-adv-x="565" d="M84 1599l299 383h186l191 -383h-180l-134 201l-186 -201h-176zM129 0l203 1446h286l-202 -1446h-287z" />
<glyph unicode="&#xcf;" horiz-adv-x="565" d="M129 0l203 1446h286l-202 -1446h-287zM129 1602l37 266h201l-39 -266h-199zM530 1602l37 266h201l-37 -266h-201z" />
<glyph unicode="&#xd0;" horiz-adv-x="1454" d="M86 635l29 192h565l-27 -192h-567zM121 0l203 1446h368q157 0 283 -24.5t226 -79t162 -138.5t85.5 -206.5t1.5 -278.5q-32 -231 -153.5 -394.5t-305.5 -244t-416 -80.5h-454zM438 223h187q226 0 366 127.5t174 364.5q20 142 0 239.5t-82.5 156.5t-159.5 84.5t-239 25.5 h-106z" />
<glyph unicode="&#xd1;" horiz-adv-x="1447" d="M117 0l202 1446h238l502 -975l135 975h262l-203 -1446h-243l-496 975l-135 -975h-262zM557 1608q4 30 7.5 49.5t12.5 52.5t22 54.5t33 44t50 33.5t68 11q54 0 116 -19.5t109.5 -39.5t66.5 -20q43 0 54 79h153q-4 -34 -8.5 -58t-18 -62.5t-32.5 -63t-53.5 -43t-79.5 -18.5 t-112 22t-119 44t-62 22q-23 0 -36 -20.5t-19 -67.5h-152z" />
<glyph unicode="&#xd2;" horiz-adv-x="1593" d="M170 727q25 174 97.5 317t177.5 237.5t237.5 146t278.5 51.5q147 0 265 -51.5t196 -146t109.5 -237t6.5 -317.5q-24 -173 -96 -315t-177 -236t-237 -145t-278 -51t-264 51t-196.5 145t-111 236t-8.5 315zM461 723q-33 -235 49 -373.5t274 -138.5q193 0 314.5 138.5 t154.5 373.5q22 155 -4.5 270.5t-107.5 182.5t-211 67q-192 0 -314 -141.5t-155 -378.5zM643 1939h301l172 -340h-201q-52 66 -148.5 186t-123.5 154z" />
<glyph unicode="&#xd3;" horiz-adv-x="1593" d="M170 727q25 174 97.5 317t177.5 237.5t237.5 146t278.5 51.5q147 0 265 -51.5t196 -146t109.5 -237t6.5 -317.5q-24 -173 -96 -315t-177 -236t-237 -145t-278 -51t-264 51t-196.5 145t-111 236t-8.5 315zM461 723q-33 -235 49 -373.5t274 -138.5q193 0 314.5 138.5 t154.5 373.5q22 155 -4.5 270.5t-107.5 182.5t-211 67q-192 0 -314 -141.5t-155 -378.5zM934 1599l213 383h301l-352 -383h-162z" />
<glyph unicode="&#xd4;" horiz-adv-x="1593" d="M170 727q25 174 97.5 317t177.5 237.5t237.5 146t278.5 51.5q147 0 265 -51.5t196 -146t109.5 -237t6.5 -317.5q-24 -173 -96 -315t-177 -236t-237 -145t-278 -51t-264 51t-196.5 145t-111 236t-8.5 315zM461 723q-33 -235 49 -373.5t274 -138.5q193 0 314.5 138.5 t154.5 373.5q22 155 -4.5 270.5t-107.5 182.5t-211 67q-192 0 -314 -141.5t-155 -378.5zM643 1599l299 383h186l191 -383h-180l-133 201l-187 -201h-176z" />
<glyph unicode="&#xd5;" horiz-adv-x="1593" d="M170 727q25 174 97.5 317t177.5 237.5t237.5 146t278.5 51.5q147 0 265 -51.5t196 -146t109.5 -237t6.5 -317.5q-24 -173 -96 -315t-177 -236t-237 -145t-278 -51t-264 51t-196.5 145t-111 236t-8.5 315zM461 723q-33 -235 49 -373.5t274 -138.5q193 0 314.5 138.5 t154.5 373.5q22 155 -4.5 270.5t-107.5 182.5t-211 67q-192 0 -314 -141.5t-155 -378.5zM666 1608q4 31 7.5 49.5t12 52t22 55t33 44t49.5 33.5t68 11q54 0 116 -19.5t110 -39.5t67 -20q42 0 53 79h154q-4 -33 -8.5 -58t-18.5 -63t-33 -62.5t-53.5 -43t-79.5 -18.5t-112 22 t-119 44t-62 22q-23 0 -36 -20.5t-19 -67.5h-151z" />
<glyph unicode="&#xd6;" horiz-adv-x="1593" d="M170 727q25 174 97.5 317t177.5 237.5t237.5 146t278.5 51.5q147 0 265 -51.5t196 -146t109.5 -237t6.5 -317.5q-24 -173 -96 -315t-177 -236t-237 -145t-278 -51t-264 51t-196.5 145t-111 236t-8.5 315zM461 723q-33 -235 49 -373.5t274 -138.5q193 0 314.5 138.5 t154.5 373.5q22 155 -4.5 270.5t-107.5 182.5t-211 67q-192 0 -314 -141.5t-155 -378.5zM688 1602l37 266h201l-39 -266h-199zM1090 1602l36 266h201l-37 -266h-200z" />
<glyph unicode="&#xd7;" horiz-adv-x="1398" d="M346 279l305 280l-225 277l149 145l240 -276l318 276l110 -145l-305 -277q173 -210 227 -278l-149 -146l-242 277l-317 -277z" />
<glyph unicode="&#xd8;" horiz-adv-x="1710" d="M170 727q25 174 97.5 317t177.5 237.5t237.5 146t278.5 51.5q147 0 265 -51.5t196 -146t109.5 -237t6.5 -317.5q-24 -173 -96 -315t-177 -236t-237 -145t-278 -51t-264 51t-196.5 145t-111 236t-8.5 315zM317 -162l983 1811l84 -39l-991 -1815zM461 723 q-33 -235 49 -373.5t274 -138.5q193 0 314.5 138.5t154.5 373.5q22 155 -4.5 270.5t-107.5 182.5t-211 67q-192 0 -314 -141.5t-155 -378.5z" />
<glyph unicode="&#xd9;" horiz-adv-x="1388" d="M178 539l127 907h287l-125 -893q-27 -184 21.5 -264t199.5 -80q150 0 220.5 79.5t97.5 264.5l124 893h287l-127 -907q-39 -273 -198 -416t-437 -143t-397 143t-80 416zM516 1939h301l172 -340h-201q-52 66 -148.5 186t-123.5 154z" />
<glyph unicode="&#xda;" horiz-adv-x="1388" d="M178 539l127 907h287l-125 -893q-27 -184 21.5 -264t199.5 -80q150 0 220.5 79.5t97.5 264.5l124 893h287l-127 -907q-39 -273 -198 -416t-437 -143t-397 143t-80 416zM809 1599l213 383h301l-352 -383h-162z" />
<glyph unicode="&#xdb;" horiz-adv-x="1388" d="M178 539l127 907h287l-125 -893q-27 -184 21.5 -264t199.5 -80q150 0 220.5 79.5t97.5 264.5l124 893h287l-127 -907q-39 -273 -198 -416t-437 -143t-397 143t-80 416zM516 1599l299 383h186l191 -383h-180l-133 201l-187 -201h-176z" />
<glyph unicode="&#xdc;" horiz-adv-x="1388" d="M178 539l127 907h287l-125 -893q-27 -184 21.5 -264t199.5 -80q150 0 220.5 79.5t97.5 264.5l124 893h287l-127 -907q-39 -273 -198 -416t-437 -143t-397 143t-80 416zM561 1602l37 266h201l-39 -266h-199zM963 1602l36 266h201l-37 -266h-200z" />
<glyph unicode="&#xdd;" horiz-adv-x="1241" d="M170 1446h287l245 -604l414 604h283l-586 -860l-84 -586h-285l82 586zM846 1599l213 383h301l-352 -383h-162z" />
<glyph unicode="&#xde;" horiz-adv-x="1243" d="M176 14l201 1426h227l-33 -242h252q116 0 209 -24.5t162.5 -75t100 -137t14.5 -201.5q-15 -107 -69 -191.5t-134.5 -137.5t-178 -81t-204.5 -28h-277l-43 -308h-227zM477 535h291q126 0 208 61t99 176q18 125 -51 182.5t-211 57.5h-268z" />
<glyph unicode="&#xdf;" horiz-adv-x="1161" d="M92 0l144 1018q31 219 161.5 340t339.5 121q66 0 125 -13t109 -41t84 -68.5t48.5 -98.5t4.5 -128q-7 -50 -31 -96.5t-52 -78.5t-73 -67.5t-75 -54.5t-78 -47q140 -76 165 -92q171 -106 205 -232q16 -56 7 -120q-24 -167 -150 -254.5t-309 -87.5h-244l53 188h189 q70 0 114.5 42.5t53.5 115.5q6 38 -3.5 71.5t-26.5 57.5t-47 49t-56.5 42t-64 41.5t-60.5 41.5q-69 51 -60 125q10 67 78 119q8 6 50.5 37.5t56.5 44t41.5 40.5t39.5 55.5t17 59.5q9 68 -29 106t-110 38q-42 0 -73.5 -12.5t-52.5 -34t-35.5 -57.5t-23 -73.5t-16.5 -92.5 l-141 -1004h-275z" />
<glyph unicode="&#xe0;" d="M98 270q7 48 20 87t35 69.5t46 54t62 42t72.5 31.5t89 25t100.5 20t116 19l66 13l6 43q8 56 5.5 92.5t-29.5 54.5t-87 21q-114 0 -317 -66l-25 195q171 80 408 80q173 0 258.5 -83t62.5 -245l-100 -723h-209l-10 115q-81 -67 -151 -101t-157 -34q-135 0 -208 78.5 t-54 211.5zM344 283q-8 -56 16.5 -88.5t79.5 -32.5q41 0 78.5 11.5t61.5 25t69 43.5l33 229l-68 -12q-50 -7 -80 -13t-68 -19t-60 -30.5t-39.5 -46t-22.5 -67.5zM356 1565h301l172 -340h-200q-51 65 -145.5 182t-127.5 158z" />
<glyph unicode="&#xe1;" d="M98 270q7 48 20 87t35 69.5t46 54t62 42t72.5 31.5t89 25t100.5 20t116 19l66 13l6 43q8 56 5.5 92.5t-29.5 54.5t-87 21q-114 0 -317 -66l-25 195q171 80 408 80q173 0 258.5 -83t62.5 -245l-100 -723h-209l-10 115q-81 -67 -151 -101t-157 -34q-135 0 -208 78.5 t-54 211.5zM344 283q-8 -56 16.5 -88.5t79.5 -32.5q41 0 78.5 11.5t61.5 25t69 43.5l33 229l-68 -12q-50 -7 -80 -13t-68 -19t-60 -30.5t-39.5 -46t-22.5 -67.5zM649 1225l213 383h301l-352 -383h-162z" />
<glyph unicode="&#xe2;" d="M98 270q7 48 20 87t35 69.5t46 54t62 42t72.5 31.5t89 25t100.5 20t116 19l66 13l6 43q8 56 5.5 92.5t-29.5 54.5t-87 21q-114 0 -317 -66l-25 195q171 80 408 80q173 0 258.5 -83t62.5 -245l-100 -723h-209l-10 115q-81 -67 -151 -101t-157 -34q-135 0 -208 78.5 t-54 211.5zM344 283q-8 -56 16.5 -88.5t79.5 -32.5q41 0 78.5 11.5t61.5 25t69 43.5l33 229l-68 -12q-50 -7 -80 -13t-68 -19t-60 -30.5t-39.5 -46t-22.5 -67.5zM356 1225l299 383h187l190 -383h-180l-133 200l-187 -200h-176z" />
<glyph unicode="&#xe3;" d="M98 270q7 48 20 87t35 69.5t46 54t62 42t72.5 31.5t89 25t100.5 20t116 19l66 13l6 43q8 56 5.5 92.5t-29.5 54.5t-87 21q-114 0 -317 -66l-25 195q171 80 408 80q173 0 258.5 -83t62.5 -245l-100 -723h-209l-10 115q-81 -67 -151 -101t-157 -34q-135 0 -208 78.5 t-54 211.5zM344 283q-8 -56 16.5 -88.5t79.5 -32.5q41 0 78.5 11.5t61.5 25t69 43.5l33 229l-68 -12q-50 -7 -80 -13t-68 -19t-60 -30.5t-39.5 -46t-22.5 -67.5zM379 1227q4 26 6.5 42t9.5 45t15 47.5t23 42t33 37t45 23t60 9.5q54 0 116 -20t110 -40t67 -20q42 0 54 80h153 q-3 -28 -7 -47.5t-12 -52t-21.5 -55t-33.5 -45t-50 -34.5t-68 -12q-45 0 -112 22t-119 44t-62 22q-45 0 -56 -88h-151z" />
<glyph unicode="&#xe4;" d="M98 270q7 48 20 87t35 69.5t46 54t62 42t72.5 31.5t89 25t100.5 20t116 19l66 13l6 43q8 56 5.5 92.5t-29.5 54.5t-87 21q-114 0 -317 -66l-25 195q171 80 408 80q173 0 258.5 -83t62.5 -245l-100 -723h-209l-10 115q-81 -67 -151 -101t-157 -34q-135 0 -208 78.5 t-54 211.5zM344 283q-8 -56 16.5 -88.5t79.5 -32.5q41 0 78.5 11.5t61.5 25t69 43.5l33 229l-68 -12q-50 -7 -80 -13t-68 -19t-60 -30.5t-39.5 -46t-22.5 -67.5zM401 1227l37 266h201l-39 -266h-199zM803 1227l37 266h200l-36 -266h-201z" />
<glyph unicode="&#xe5;" d="M98 270q7 48 20 87t35 69.5t46 54t62 42t72.5 31.5t89 25t100.5 20t116 19l66 13l6 43q8 56 5.5 92.5t-29.5 54.5t-87 21q-114 0 -317 -66l-25 195q171 80 408 80q173 0 258.5 -83t62.5 -245l-100 -723h-209l-10 115q-81 -67 -151 -101t-157 -34q-135 0 -208 78.5 t-54 211.5zM344 283q-8 -56 16.5 -88.5t79.5 -32.5q41 0 78.5 11.5t61.5 25t69 43.5l33 229l-68 -12q-50 -7 -80 -13t-68 -19t-60 -30.5t-39.5 -46t-22.5 -67.5zM535 1411q-11 -85 36.5 -148t147.5 -63t165.5 63t76.5 148q11 84 -36.5 144.5t-148.5 60.5t-165.5 -60.5 t-75.5 -144.5zM649 1411q7 45 36.5 78t76.5 33t69.5 -33.5t16.5 -77.5q-7 -45 -38 -78t-79 -33q-47 0 -68 33t-14 78z" />
<glyph unicode="&#xe6;" horiz-adv-x="1499" d="M98 297q6 40 17.5 72.5t32.5 58t42.5 44t59 34t68 25t84.5 19.5t94 15.5t110 14.5l76 8l14 88q13 89 -14 130.5t-115 45.5q-32 0 -67.5 -5t-71 -14.5t-59 -16.5t-54.5 -18t-34 -12l-25 185q82 38 158.5 57.5t189.5 22.5q119 2 191.5 -42.5t87.5 -127.5q64 74 154 122 t192 48q96 0 163.5 -40.5t99 -108.5t42.5 -157.5t-6 -187.5q-8 -57 -150 -61q-20 -1 -450 -39q-15 -132 36.5 -201.5t161.5 -71.5q81 0 149 18t103 44l54 -166q-70 -50 -149.5 -75t-195.5 -25q-235 0 -327 167q-163 -167 -398 -167q-141 0 -211.5 94t-52.5 223zM342 291 q-8 -61 15.5 -95t80.5 -34q114 0 244 119l-2 11l-5 25t-5.5 35t-3 39t1.5 37l-86 -12q-42 -6 -64 -10t-54 -11t-48.5 -15.5t-34.5 -20.5t-27 -29t-12 -39zM950 604l344 37q4 13 6 33q6 21 3.5 50.5t-9.5 56t-33.5 45t-68.5 18.5q-26 0 -50.5 -5t-55 -20.5t-55 -41t-47 -70 t-34.5 -103.5z" />
<glyph unicode="&#xe7;" horiz-adv-x="944" d="M131 526q18 127 72 229.5t130.5 165.5t166 96.5t182.5 33.5q90 -1 151 -25t109 -72l-63 -182q-31 26 -86.5 48t-110.5 22q-107 0 -187.5 -81.5t-103.5 -244.5q-46 -332 203 -332q113 0 217 74l18 -184q-71 -48 -138 -71t-152 -23q-105 0 -187.5 33.5t-139 99.5 t-78.5 171.5t-3 241.5zM317 -373l172 367h156l-110 -367h-218z" />
<glyph unicode="&#xe8;" horiz-adv-x="1107" d="M129 514q-34 -249 80.5 -391.5t361.5 -142.5q213 0 375 124l-51 166q-51 -36 -125 -61t-156 -25q-123 0 -181.5 68t-43.5 201h635l12 84q10 82 6.5 157t-30 140.5t-68.5 113.5t-110 75.5t-154 27.5q-145 0 -264.5 -72.5t-192 -193t-94.5 -271.5zM393 1565h301l172 -340 h-200q-51 65 -145.5 182t-127.5 158zM412 594q15 70 43.5 121t63.5 77.5t68 38t66 11.5q88 0 126.5 -64t21.5 -184h-389z" />
<glyph unicode="&#xe9;" horiz-adv-x="1107" d="M129 514q-34 -249 80.5 -391.5t361.5 -142.5q213 0 375 124l-51 166q-51 -36 -125 -61t-156 -25q-123 0 -181.5 68t-43.5 201h635l12 84q10 82 6.5 157t-30 140.5t-68.5 113.5t-110 75.5t-154 27.5q-145 0 -264.5 -72.5t-192 -193t-94.5 -271.5zM412 594q15 70 43.5 121 t63.5 77.5t68 38t66 11.5q88 0 126.5 -64t21.5 -184h-389zM471 1176l213 383h301l-352 -383h-162z" />
<glyph unicode="&#xea;" horiz-adv-x="1107" d="M129 514q-34 -249 80.5 -391.5t361.5 -142.5q213 0 375 124l-51 166q-51 -36 -125 -61t-156 -25q-123 0 -181.5 68t-43.5 201h635l12 84q10 82 6.5 157t-30 140.5t-68.5 113.5t-110 75.5t-154 27.5q-145 0 -264.5 -72.5t-192 -193t-94.5 -271.5zM350 1133l299 383h187 l190 -383h-180l-133 200l-187 -200h-176zM412 594q15 70 43.5 121t63.5 77.5t68 38t66 11.5q88 0 126.5 -64t21.5 -184h-389z" />
<glyph unicode="&#xeb;" horiz-adv-x="1107" d="M129 514q-34 -249 80.5 -391.5t361.5 -142.5q213 0 375 124l-51 166q-51 -36 -125 -61t-156 -25q-123 0 -181.5 68t-43.5 201h635l12 84q10 82 6.5 157t-30 140.5t-68.5 113.5t-110 75.5t-154 27.5q-145 0 -264.5 -72.5t-192 -193t-94.5 -271.5zM410 1231l36 266h201 l-39 -266h-198zM412 594q15 70 43.5 121t63.5 77.5t68 38t66 11.5q88 0 126.5 -64t21.5 -184h-389zM811 1231l37 266h201l-37 -266h-201z" />
<glyph unicode="&#xec;" horiz-adv-x="585" d="M123 0l147 1063h273l-150 -1063h-270zM133 1565h301l172 -340h-200q-51 65 -145.5 182t-127.5 158z" />
<glyph unicode="&#xed;" horiz-adv-x="585" d="M123 0l147 1063h273l-150 -1063h-270zM211 1176l213 383h301l-352 -383h-162z" />
<glyph unicode="&#xee;" horiz-adv-x="585" d="M88 1133l299 383h186l191 -383h-180l-133 200l-187 -200h-176zM123 0l147 1063h273l-150 -1063h-270z" />
<glyph unicode="&#xef;" horiz-adv-x="585" d="M123 0l147 1063h273l-150 -1063h-270zM147 1231l37 266h201l-39 -266h-199zM549 1231l37 266h200l-36 -266h-201z" />
<glyph unicode="&#xf0;" horiz-adv-x="1099" d="M137 461q29 206 166 330t336 124q14 0 43 -4t52 -8l22 -4l-121 195l-221 -97l-37 183l166 69l-146 230h285l74 -133l235 104l35 -180l-180 -80q155 -228 217 -373q70 -165 45 -371q-32 -222 -179 -343t-370 -121q-216 0 -334 131t-88 348zM387 475q-19 -125 39.5 -200.5 t171.5 -75.5t186.5 72.5t92.5 199.5q19 131 -36 207t-171 76t-190 -74t-93 -205z" />
<glyph unicode="&#xf1;" horiz-adv-x="1196" d="M92 0l111 791l30 219h228l2 -142q72 81 167.5 132.5t196.5 50.5q166 -3 231.5 -120.5t37.5 -314.5l-86 -616h-273l82 584q6 42 8.5 68t3 60t-6.5 54t-20 39.5t-37.5 28t-59.5 8.5q-65 0 -135 -48t-111 -112l-96 -682h-273zM393 1227q4 26 6.5 42t9.5 44.5t15.5 47.5 t23 42t33 37t45.5 23.5t60 9.5q54 0 116 -20t110 -40t67 -20q41 0 53 80h153q-3 -28 -7 -47.5t-12 -52t-21.5 -55t-33.5 -45t-50 -34.5t-68 -12q-45 0 -112 22t-119 44t-62 22q-23 0 -36 -20.5t-19 -67.5h-152z" />
<glyph unicode="&#xf2;" horiz-adv-x="1175" d="M129 512q33 242 178.5 390.5t374.5 148.5q115 0 200.5 -40t134 -112t65.5 -170.5t1 -216.5q-33 -238 -179 -385t-374 -147q-115 0 -200.5 40t-134 111t-65.5 168t-1 213zM389 512q-23 -157 24.5 -241.5t147.5 -84.5q99 0 169 84t93 242q23 160 -24.5 245t-145.5 85 t-169.5 -85t-94.5 -245zM532 1516h302l172 -340h-201q-51 65 -145.5 182t-127.5 158z" />
<glyph unicode="&#xf3;" horiz-adv-x="1175" d="M129 512q33 242 178.5 390.5t374.5 148.5q115 0 200.5 -40t134 -112t65.5 -170.5t1 -216.5q-33 -238 -179 -385t-374 -147q-115 0 -200.5 40t-134 111t-65.5 168t-1 213zM389 512q-23 -157 24.5 -241.5t147.5 -84.5q99 0 169 84t93 242q23 160 -24.5 245t-145.5 85 t-169.5 -85t-94.5 -245zM504 1176l213 383h301l-352 -383h-162z" />
<glyph unicode="&#xf4;" horiz-adv-x="1175" d="M129 512q33 242 178.5 390.5t374.5 148.5q115 0 200.5 -40t134 -112t65.5 -170.5t1 -216.5q-33 -238 -179 -385t-374 -147q-115 0 -200.5 40t-134 111t-65.5 168t-1 213zM383 1133l299 383h186l191 -383h-180l-134 200l-186 -200h-176zM389 512q-23 -157 24.5 -241.5 t147.5 -84.5q99 0 169 84t93 242q23 160 -24.5 245t-145.5 85t-169.5 -85t-94.5 -245z" />
<glyph unicode="&#xf5;" horiz-adv-x="1175" d="M129 512q33 242 178.5 390.5t374.5 148.5q115 0 200.5 -40t134 -112t65.5 -170.5t1 -216.5q-33 -238 -179 -385t-374 -147q-115 0 -200.5 40t-134 111t-65.5 168t-1 213zM389 512q-23 -157 24.5 -241.5t147.5 -84.5q99 0 169 84t93 242q23 160 -24.5 245t-145.5 85 t-169.5 -85t-94.5 -245zM395 1227q4 26 6.5 42t9.5 44.5t15.5 47.5t23 42t33 37t45.5 23.5t60 9.5q54 0 116 -20t110 -40t67 -20q41 0 53 80h153q-3 -28 -7 -47.5t-12 -52t-21.5 -55t-33.5 -45t-50 -34.5t-68 -12q-45 0 -112 22t-119 44t-62 22q-23 0 -36 -20.5t-19 -67.5 h-152z" />
<glyph unicode="&#xf6;" horiz-adv-x="1175" d="M129 512q33 242 178.5 390.5t374.5 148.5q115 0 200.5 -40t134 -112t65.5 -170.5t1 -216.5q-33 -238 -179 -385t-374 -147q-115 0 -200.5 40t-134 111t-65.5 168t-1 213zM389 512q-23 -157 24.5 -241.5t147.5 -84.5q99 0 169 84t93 242q23 160 -24.5 245t-145.5 85 t-169.5 -85t-94.5 -245zM442 1231l37 266h201l-39 -266h-199zM844 1231l37 266h200l-37 -266h-200z" />
<glyph unicode="&#xf7;" horiz-adv-x="1415" d="M256 461l27 198h1034l-29 -198h-1032zM569 20l39 271h291l-39 -271h-291zM682 817l39 270h291l-39 -270h-291z" />
<glyph unicode="&#xf8;" horiz-adv-x="1130" d="M129 512q33 242 178.5 390.5t374.5 148.5q115 0 200.5 -40t134 -112t65.5 -170.5t1 -216.5q-33 -238 -179 -385t-374 -147q-115 0 -200.5 40t-134 111t-65.5 168t-1 213zM188 -156l742 1434l51 -35l-745 -1431zM389 512q-23 -157 24.5 -241.5t147.5 -84.5q99 0 169 84 t93 242q23 160 -24.5 245t-145.5 85t-169.5 -85t-94.5 -245z" />
<glyph unicode="&#xf9;" horiz-adv-x="1153" d="M137 385l96 678h273l-96 -674q-14 -108 23.5 -155.5t121.5 -47.5q174 0 201 203l94 674h270l-94 -678q-19 -134 -89 -226t-174.5 -135.5t-238.5 -43.5q-205 0 -310 101.5t-77 303.5zM520 1516h301l172 -340h-200q-51 65 -145.5 182t-127.5 158z" />
<glyph unicode="&#xfa;" horiz-adv-x="1153" d="M137 385l96 678h273l-96 -674q-14 -108 23.5 -155.5t121.5 -47.5q174 0 201 203l94 674h270l-94 -678q-19 -134 -89 -226t-174.5 -135.5t-238.5 -43.5q-205 0 -310 101.5t-77 303.5zM494 1176l213 383h301l-353 -383h-161z" />
<glyph unicode="&#xfb;" horiz-adv-x="1153" d="M137 385l96 678h273l-96 -674q-14 -108 23.5 -155.5t121.5 -47.5q174 0 201 203l94 674h270l-94 -678q-19 -134 -89 -226t-174.5 -135.5t-238.5 -43.5q-205 0 -310 101.5t-77 303.5zM371 1133l299 383h186l191 -383h-181l-133 200l-186 -200h-176z" />
<glyph unicode="&#xfc;" horiz-adv-x="1153" d="M137 385l96 678h273l-96 -674q-14 -108 23.5 -155.5t121.5 -47.5q174 0 201 203l94 674h270l-94 -678q-19 -134 -89 -226t-174.5 -135.5t-238.5 -43.5q-205 0 -310 101.5t-77 303.5zM432 1231l37 266h201l-39 -266h-199zM834 1231l36 266h201l-37 -266h-200z" />
<glyph unicode="&#xfd;" horiz-adv-x="1077" d="M-10 -410l6 203h63q102 0 128 6q56 14 97 78q31 50 72 158l-223 1028h246l139 -709l305 709h252l-532 -1135q-64 -137 -128.5 -211t-134.5 -100.5t-174 -26.5h-116zM457 1176l213 383h301l-353 -383h-161z" />
<glyph unicode="&#xfe;" horiz-adv-x="1179" d="M92 -422l230 1624l34 291h240l-78 -553q5 5 14 12.5t39 27.5t62 35t80 27.5t96 12.5q88 0 157 -28t112 -78t70 -119t30.5 -150.5t-7.5 -171.5q-16 -111 -54.5 -205t-99 -166t-148 -112.5t-193.5 -40.5q-55 0 -103 12t-78.5 29.5t-52.5 35t-32 29.5l-9 12l-73 -524h-236z M459 524q-23 -154 27 -240.5t178 -86.5q116 0 183 89t89 238q12 69 6 129t-26 104t-61.5 69.5t-100.5 25.5q-127 0 -200.5 -87.5t-94.5 -240.5z" />
<glyph unicode="&#xff;" horiz-adv-x="1077" d="M-10 -410l6 203h63q102 0 128 6q56 14 97 78q31 50 72 158l-223 1028h246l139 -709l305 709h252l-532 -1135q-64 -137 -128.5 -211t-134.5 -100.5t-174 -26.5h-116zM393 1231l37 266h201l-39 -266h-199zM795 1231l36 266h201l-37 -266h-200z" />
<glyph unicode="&#x152;" horiz-adv-x="2154" d="M205 727q30 214 142 386t280 269t358 97q178 0 318 -105l12 76h917l-49 -221h-629l-51 -361h604l-30 -217h-604l-60 -426h676l-49 -221h-930l12 82q-161 -104 -348 -104q-190 0 -330.5 96.5t-204 267t-34.5 381.5zM472 568q4 -75 29.5 -140.5t65 -114.5t102 -77.5 t140.5 -28.5q214 0 348 127l111 784q-99 135 -312 135q-97 0 -182 -45.5t-144.5 -121t-99 -169t-53.5 -194.5q-9 -80 -5 -155z" />
<glyph unicode="&#x153;" horiz-adv-x="1667" d="M127.5 344.5q-4.5 78.5 5.5 165.5q16 114 58.5 211t109 171.5t164 116.5t215.5 42q116 0 195.5 -55t121.5 -144q61 93 154.5 146t212.5 53q106 0 179.5 -42.5t107 -113.5t44.5 -164t-7 -194l-13 -84h-612q-30 -269 217 -269q144 0 266 86l51 -166q-80 -61 -160.5 -92.5 t-193.5 -31.5q-273 0 -346 186q-59 -84 -154 -135t-213 -51q-95 0 -169.5 27.5t-122 76.5t-77 115.5t-34 145zM393 510q-22 -157 26 -240.5t144 -83.5q97 0 168.5 82t93.5 242q24 166 -24 249t-146 83t-169 -85t-93 -247zM1085 598h367l2 8q17 120 -17 178t-122 58 q-33 0 -64.5 -11t-64.5 -36.5t-59.5 -76t-41.5 -120.5z" />
<glyph unicode="&#x178;" horiz-adv-x="1241" d="M170 1446h287l245 -604l414 604h283l-586 -860l-84 -586h-285l82 586zM598 1602l37 266h201l-39 -266h-199zM999 1602l37 266h201l-37 -266h-201z" />
<glyph unicode="&#x2c6;" horiz-adv-x="690" d="M182 1133l299 383h187l190 -383h-180l-133 200l-187 -200h-176z" />
<glyph unicode="&#x2dc;" horiz-adv-x="696" d="M190 1208q4 26 6.5 42t9.5 44.5t15.5 47.5t23 42t33 37t45.5 23.5t60 9.5q54 0 116 -20t110 -40t67 -20q41 0 53 80h154q-4 -33 -8.5 -58t-18.5 -63t-33 -63t-53.5 -43.5t-79.5 -18.5t-112 22t-119 44t-62 22q-23 0 -36 -20.5t-19 -67.5h-152z" />
<glyph unicode="&#x2000;" horiz-adv-x="991" />
<glyph unicode="&#x2001;" horiz-adv-x="1982" />
<glyph unicode="&#x2002;" horiz-adv-x="991" />
<glyph unicode="&#x2003;" horiz-adv-x="1982" />
<glyph unicode="&#x2004;" horiz-adv-x="660" />
<glyph unicode="&#x2005;" horiz-adv-x="495" />
<glyph unicode="&#x2006;" horiz-adv-x="330" />
<glyph unicode="&#x2007;" horiz-adv-x="330" />
<glyph unicode="&#x2008;" horiz-adv-x="247" />
<glyph unicode="&#x2009;" horiz-adv-x="396" />
<glyph unicode="&#x200a;" horiz-adv-x="110" />
<glyph unicode="&#x2010;" horiz-adv-x="665" d="M127 432l29 195h534l-26 -195h-537z" />
<glyph unicode="&#x2011;" horiz-adv-x="665" d="M127 432l29 195h534l-26 -195h-537z" />
<glyph unicode="&#x2012;" horiz-adv-x="665" d="M127 432l29 195h534l-26 -195h-537z" />
<glyph unicode="&#x2013;" horiz-adv-x="1134" d="M129 438l29 199h1003l-28 -199h-1004z" />
<glyph unicode="&#x2014;" horiz-adv-x="1853" d="M55 438l29 199h1855l-26 -199h-1858z" />
<glyph unicode="&#x2018;" horiz-adv-x="399" d="M242 1483h227l41 -500h-178z" />
<glyph unicode="&#x2019;" horiz-adv-x="401" d="M172 983l178 500h230l-232 -500h-176z" />
<glyph unicode="&#x201a;" horiz-adv-x="544" d="M68 -289l180 500h227l-229 -500h-178z" />
<glyph unicode="&#x201c;" horiz-adv-x="681" d="M242 1483h229l29 -500h-168zM537 1483h217l37 -500h-181z" />
<glyph unicode="&#x201d;" horiz-adv-x="954" d="M322 983l178 500h217l-215 -500h-180zM612 983l170 500h228l-232 -500h-166z" />
<glyph unicode="&#x201e;" horiz-adv-x="970" d="M117 -289l176 500h229l-233 -500h-172zM446 -289l185 500h221l-223 -500h-183z" />
<glyph unicode="&#x2022;" horiz-adv-x="987" d="M233 674q22 148 139 247t275 99q157 0 244 -95t65 -243q-22 -150 -137 -248t-274 -98q-158 0 -246 95t-66 243z" />
<glyph unicode="&#x2026;" horiz-adv-x="1499" d="M133 -61l37 270h256l-39 -270h-254zM610 -61l37 270h273l-39 -270h-271zM1102 -61l39 270h256l-39 -270h-256z" />
<glyph unicode="&#x202f;" horiz-adv-x="396" />
<glyph unicode="&#x2039;" horiz-adv-x="536" d="M109 547l315 377h215l-313 -377l200 -377h-215z" />
<glyph unicode="&#x203a;" horiz-adv-x="538" d="M55 170l312 377l-197 377h211l207 -377l-320 -377h-213z" />
<glyph unicode="&#x205f;" horiz-adv-x="495" />
<glyph unicode="&#x20ac;" horiz-adv-x="1107" d="M135 494l55 196h84l11 70h-115l55 196h109q36 105 90.5 193t128.5 158.5t173 110.5t212 40q195 0 295 -137l-86 -281l-31 66q-67 147 -211 147q-221 0 -340 -295h514l-53 -198h-514l-8 -45v-15l-2 -10h510q0 -1 -1 -3t-1 -3l-52 -190h-462q2 -71 15.5 -124t41.5 -96 t77 -65.5t118 -22.5q73 0 137 31t139 90l51 43l-37 -260q-157 -108 -338 -108q-118 0 -204 40t-135.5 112t-72.5 161.5t-24 198.5h-129z" />
<glyph unicode="&#x2122;" horiz-adv-x="1679" d="M242 1300l22 160h617l-23 -160h-215l-86 -614h-176l86 614h-225zM815 686l111 774h223l111 -504l258 504h206l-108 -774h-168l68 485l-252 -485h-101l-104 477l-68 -477h-176z" />
<glyph unicode="&#x25fc;" horiz-adv-x="1064" d="M0 0v1065h1065v-1065h-1065z" />
<glyph unicode="&#xfb01;" horiz-adv-x="1060" d="M131 895l25 168h145l6 33q10 68 19 114.5t25 98t36 84t51.5 64.5t72.5 50t97.5 28.5t128.5 10.5h62l-13 -211h-51q-78 0 -106.5 -39.5t-42.5 -144.5l-13 -88h533l-152 -1063h-241l127 895h-291l-125 -895h-270l125 895h-148zM889 1245l33 234h241l-33 -234h-241z" />
<glyph unicode="&#xfb02;" horiz-adv-x="1273" d="M131 895l25 168h145l8 55q32 220 139.5 325t321.5 105q92 0 216 -13t202 -25l78 -13l-154 -1081q-18 -128 2 -172.5t113 -44.5l51 4l-18 -203q-52 -12 -138 -12q-106 0 -171.5 34.5t-89 97t-26.5 148t15 187.5l121 868q-91 18 -183 18q-106 0 -147 -42.5t-55 -147.5 l-13 -88h195l-25 -168h-194l-125 -895h-270l125 895h-148z" />
</font>
</defs>
</svg>
