<?xml version="1.0" standalone="no"?>
<!DOCTYPE svg PUBLIC "-//W3C//DTD SVG 1.1//EN" "http://www.w3.org/Graphics/SVG/1.1/DTD/svg11.dtd" >
<svg xmlns="http://www.w3.org/2000/svg">
<metadata></metadata>
<defs>
<font id="oxygenbold" horiz-adv-x="1298" >
<font-face units-per-em="2048" ascent="1638" descent="-410" />
<missing-glyph horiz-adv-x="444" />
<glyph horiz-adv-x="0" />
<glyph unicode="&#xd;" horiz-adv-x="0" />
<glyph unicode=" "  horiz-adv-x="444" />
<glyph unicode="&#x09;" horiz-adv-x="444" />
<glyph unicode="&#xa0;" horiz-adv-x="444" />
<glyph unicode="!" horiz-adv-x="397" d="M39 139q0 66 48 114t114 48q65 0 112 -48t47 -114t-47 -112.5t-112 -46.5q-66 0 -114 46.5t-48 112.5zM80 1198v248h256v-248l-68 -743h-116z" />
<glyph unicode="&#x22;" horiz-adv-x="645" d="M61 1452h218v-514h-181zM369 1452h213v-514h-181z" />
<glyph unicode="#" horiz-adv-x="1064" d="M35 381l14 184h199l57 330h-188l14 184h205l78 375h194l-71 -375h155l72 375h197l-72 -375h143l-20 -182h-158l-66 -332h158l-18 -184h-168l-78 -404h-195l74 404h-149l-78 -404h-199l80 404h-180zM440 565h158l59 332h-155z" />
<glyph unicode="$" horiz-adv-x="1175" d="M63 104l78 218q77 -49 199 -81t242 -32q268 0 268 172q0 39 -12.5 70.5t-30.5 52t-51 40t-60.5 30t-72.5 26.5l-183 62q-61 20 -108.5 41t-97.5 55.5t-83 75.5t-54 101t-21 132q0 133 72 228t189 139.5t265 44.5q313 0 473 -115l-78 -201q-146 90 -395 90 q-229 0 -229 -157q0 -76 38 -114.5t113 -63.5l199 -66q54 -18 91.5 -32.5t85 -37t80.5 -45.5t67 -56t54 -70.5t33 -87t13 -107.5q0 -109 -43 -193t-120 -136.5t-178 -79.5t-222 -27q-328 0 -521 124zM561 -197v1835h103v-1835h-103z" />
<glyph unicode="%" horiz-adv-x="1732" d="M37 1055q0 171 97 284t263 113q175 0 274 -110.5t99 -282.5v-2q0 -169 -104 -283.5t-273 -114.5q-166 0 -261 112t-95 284zM233 1055q0 -102 39.5 -161.5t122.5 -59.5t124.5 61t41.5 162q0 102 -40.5 162.5t-123.5 60.5t-123.5 -61.5t-40.5 -163.5zM272 -41l922 1487l2 4 h231l-4 -8l-919 -1483h-232zM961 442q0 148 100 238t266 90q179 0 275 -109t96 -282q0 -168 -98.5 -281.5t-262.5 -113.5q-172 0 -271 110.5t-99 278.5v2q-6 34 -6 67zM1178 373q0 -100 40 -158.5t123 -58.5q82 0 121 60.5t39 162.5q0 101 -42.5 160t-133.5 59 q-38 0 -65 -11.5t-42.5 -30.5t-24.5 -49.5t-12 -61t-3 -72.5z" />
<glyph unicode="&#x26;" horiz-adv-x="1398" d="M41 408q0 79 25 146t71.5 119.5t99 91t121.5 75.5q-71 80 -107 148t-36 157q0 86 32 152.5t86 106t119.5 59.5t139.5 20q72 0 139 -18.5t125 -55t93.5 -100.5t35.5 -146q0 -56 -18.5 -106.5t-46 -87.5t-71 -72.5t-81.5 -59t-88 -49.5l332 -356q70 80 141 213l182 -121 q-67 -132 -170 -250l207 -219l-229 -71l-139 145q-205 -152 -445 -152q-77 0 -149 14t-140 46.5t-118 80.5t-80.5 123t-30.5 167zM291 432q0 -65 22 -112.5t62 -74t87.5 -38.5t104.5 -12q143 0 283 96l-367 424q-90 -53 -141 -119.5t-51 -163.5zM442 1137q0 -62 28 -112 t79 -107q35 19 54.5 31t49 34.5t45 43.5t27.5 51.5t12 64.5q0 69 -38.5 104t-104.5 35q-70 0 -111 -36t-41 -109z" />
<glyph unicode="'" horiz-adv-x="344" d="M61 1452h218v-514h-181z" />
<glyph unicode="(" horiz-adv-x="622" d="M94 635q0 133 21 254.5t62.5 230.5t84 193t103.5 184h266q-10 -18 -27.5 -50.5t-61 -132t-77 -197.5t-61 -232t-27.5 -250t26 -248t63.5 -237t75 -193.5t63.5 -136.5l26 -49h-266q-61 100 -103.5 184.5t-84 193.5t-62.5 231t-21 255z" />
<glyph unicode=")" horiz-adv-x="622" d="M-6 -229q10 18 27.5 51t61 132.5t77 197.5t61 232.5t27.5 250.5t-26 248t-63.5 236.5t-75 192.5t-63.5 136l-26 49h264q61 -101 103.5 -184.5t84 -192.5t63 -230.5t21.5 -254.5t-21.5 -255t-63 -231t-84 -193.5t-103.5 -184.5h-264z" />
<glyph unicode="*" horiz-adv-x="1058" d="M49 1059l94 186l306 -147l-27 346h217l-27 -346l303 147l95 -186l-340 -123l252 -299l-199 -121l-193 309l-192 -309l-201 121l252 299z" />
<glyph unicode="+" horiz-adv-x="1198" d="M68 461v198h424v398h219v-398h422v-198h-424v-400h-220v400h-421z" />
<glyph unicode="," horiz-adv-x="423" d="M37 -305l115 528h239l-174 -528h-180z" />
<glyph unicode="-" horiz-adv-x="696" d="M70 432v195h559v-195h-559z" />
<glyph unicode="." horiz-adv-x="425" d="M57 139q0 66 48 114t114 48q65 0 112.5 -48t47.5 -114t-47.5 -112.5t-112.5 -46.5q-66 0 -114 46.5t-48 112.5z" />
<glyph unicode="/" horiz-adv-x="921" d="M51 -178l586 1675h231l-587 -1675h-230z" />
<glyph unicode="0" horiz-adv-x="1296" d="M94 725q0 120 17.5 226.5t58.5 205t103.5 168.5t158.5 112t217 42t217 -42t158 -112.5t103 -169t58 -204.5t17 -226t-17 -225t-57.5 -202t-102.5 -166.5t-158 -110.5t-218 -41t-218 41t-158.5 110.5t-103.5 166.5t-58 202t-17 225zM391 739h2v-6q0 -70 4 -127.5 t13.5 -120t28 -109.5t46 -85.5t69 -59t95.5 -20.5q53 0 95 20.5t69 59.5t46 86t28.5 109t13.5 120t4 127q0 68 -4 125t-13.5 117.5t-28.5 106.5t-46 83.5t-69 57.5t-95 20q-63 0 -110.5 -29.5t-74.5 -76t-44 -116t-22.5 -135t-6.5 -147.5z" />
<glyph unicode="1" horiz-adv-x="696" d="M43 1079v213l295 156h240v-1448h-279v1190z" />
<glyph unicode="2" horiz-adv-x="1013" d="M49 1335q82 73 178 108.5t224 35.5q212 0 349.5 -117t137.5 -322q0 -80 -25 -158.5t-71 -149t-85.5 -118.5t-94.5 -106l-285 -297h547l-21 -211h-850v233l441 488q72 77 111.5 152.5t39.5 166.5q0 85 -63 144t-152 59q-162 0 -301 -121z" />
<glyph unicode="3" horiz-adv-x="1048" d="M45 1366q83 62 184.5 87.5t239.5 25.5q214 0 345.5 -114t131.5 -288q0 -113 -58.5 -195.5t-172.5 -119.5q130 -33 200.5 -127.5t73.5 -228.5v-13q0 -133 -71.5 -228.5t-187 -140t-261.5 -44.5q-126 0 -239 32.5t-183 93.5l76 203q53 -45 149.5 -71.5t194.5 -26.5 q101 0 163 56.5t62 144.5q0 59 -17.5 100t-47 66t-79.5 39.5t-102 19.5t-129 6h-57v221h57q84 0 144 8.5t110 29t75.5 60t25.5 97.5q0 72 -60 128t-168 56q-185 0 -323 -82z" />
<glyph unicode="4" horiz-adv-x="1239" d="M84 309v187l553 950h379v-922h174l-12 -215h-162v-309h-297v309h-635zM391 524h328v594z" />
<glyph unicode="5" horiz-adv-x="1103" d="M96 121l82 203q6 -5 17.5 -13t46.5 -28t70.5 -35.5t85.5 -28t96 -12.5q127 0 189 72t62 190q0 116 -61 190t-168 74q-43 0 -93.5 -18.5t-90.5 -59.5l-180 33l36 758h787l-14 -221h-566l-12 -326q104 39 207 39q193 0 315.5 -130.5t122.5 -342.5q0 -221 -128 -353 t-365 -132q-64 0 -132.5 14.5t-121 35t-96 41.5t-66.5 35z" />
<glyph unicode="6" horiz-adv-x="1189" d="M49 461q0 65 14.5 126.5t44.5 119t53.5 94.5t63.5 92l414 553h352l-416 -539q60 11 84 11q221 0 359.5 -127t138.5 -332q0 -144 -73.5 -254t-198 -167.5t-279.5 -57.5q-244 0 -400.5 130.5t-156.5 350.5zM346 446q0 -118 64.5 -184.5t183.5 -66.5q123 0 191.5 69 t68.5 189q0 258 -256 258q-252 0 -252 -265z" />
<glyph unicode="7" horiz-adv-x="999" d="M51 1231v215h932v-164l-485 -1282h-287l453 1231h-613z" />
<glyph unicode="8" horiz-adv-x="1124" d="M49 389q0 247 242 371q-215 115 -215 338q0 124 67 211.5t175 128.5t245 41t245.5 -41t175.5 -128.5t67 -211.5q0 -220 -199 -338q223 -122 223 -371q0 -130 -70.5 -224.5t-184.5 -139.5t-257 -45t-258 45.5t-185.5 139.5t-70.5 224zM315 401q0 -104 64 -156t184 -52 q246 0 246 210q0 107 -67.5 172.5t-178.5 96.5q-248 -69 -248 -271zM324 1085q0 -200 239 -256q240 57 240 256q0 84 -67 132.5t-173 48.5q-105 0 -172 -48.5t-67 -132.5z" />
<glyph unicode="9" horiz-adv-x="1214" d="M63 999q0 144 73.5 254.5t198 168t279.5 57.5q244 0 400.5 -131t156.5 -351q0 -65 -14.5 -126.5t-44.5 -119t-53.5 -94.5t-63.5 -92l-411 -565h-355l416 551q-55 -10 -84 -10q-221 0 -359.5 126.5t-138.5 331.5zM367 1006q0 -125 63.5 -191.5t194.5 -66.5q249 0 249 264 q0 119 -63.5 185.5t-181.5 66.5q-123 0 -192.5 -69t-69.5 -189z" />
<glyph unicode=":" horiz-adv-x="446" d="M86 0v276h283v-276h-283zM86 788v277h283v-277h-283z" />
<glyph unicode=";" horiz-adv-x="423" d="M94 -326l56 570h239l-123 -570h-172zM104 788v277h285v-277h-285z" />
<glyph unicode="&#x3c;" horiz-adv-x="1081" d="M35 494v124l1007 478v-219l-700 -320l698 -309v-219z" />
<glyph unicode="=" horiz-adv-x="1183" d="M70 639v199h1042v-199h-1042zM72 283v196h1042v-196h-1042z" />
<glyph unicode="&#x3e;" horiz-adv-x="1083" d="M41 39v219l702 303l-698 330v219l1006 -492v-129z" />
<glyph unicode="?" horiz-adv-x="886" d="M43 1368q88 56 174 83.5t211 27.5q53 0 107 -12.5t105.5 -40.5t91.5 -68t64.5 -99t24.5 -129q0 -79 -39.5 -162.5t-92 -148.5t-128 -169t-125.5 -197h-119q13 84 47.5 164.5t73 140.5t75.5 115.5t61 111t24 105.5q0 85 -53 137.5t-146 52.5q-150 0 -280 -86zM207 139 q0 66 48 114t114 48q65 0 112 -48t47 -114t-47 -112.5t-112 -46.5q-66 0 -114 46.5t-48 112.5z" />
<glyph unicode="@" horiz-adv-x="1632" d="M55 571q0 171 65 314t171 252q103 103 249.5 167t315.5 64q151 0 278.5 -50t221.5 -136q101 -92 162 -220t61 -288q0 -175 -74.5 -308t-197.5 -200q-76 -43 -164 -43q-141 0 -199 123q-103 -107 -229 -107q-141 0 -221 97.5t-80 244.5q0 142 65 263.5t178 193.5t246 72 q117 0 291 -60l23 -8l-5 -27q-11 -52 -32.5 -145t-38.5 -170t-29 -143q-8 -49 -8 -82q0 -42 13.5 -58t49.5 -16q68 0 119 57.5t74.5 141.5t23.5 178q0 242 -142 377t-386 135h-2q-21 24 -66 24q-43 0 -102.5 -25t-114 -62.5t-89.5 -64t-56 -44.5h-4q-39 0 -103.5 -187.5 t-64.5 -259.5q0 -286 167.5 -454t455.5 -168q263 0 434 141l20 16l111 -126l-25 -21q-211 -188 -543 -188q-175 0 -328 60t-255 159q-236 233 -236 581zM625 471q0 -147 112 -147h11q42 2 77.5 24.5t60.5 63t44 85t34 105.5t24.5 109t20.5 111q1 5 1 7q-79 9 -107 9 q-80 0 -145 -52.5t-99 -136t-34 -178.5z" />
<glyph unicode="A" d="M-10 0l39 121l487 1325h281l473 -1325l41 -121h-283l-158 444h-428l-157 -444h-295zM506 627h295l-144 489z" />
<glyph unicode="B" horiz-adv-x="1308" d="M121 0v1446h491q106 0 189.5 -9.5t160.5 -34t127.5 -65t80.5 -106t30 -152.5q0 -186 -184 -295q231 -99 231 -360q0 -112 -42 -195t-120.5 -132.5t-181.5 -73t-233 -23.5h-549zM420 203h211q164 0 242.5 50.5t78.5 180.5q0 133 -71.5 185.5t-231.5 52.5h-229v-469z M420 870h227q133 0 198.5 37t65.5 131q0 46 -10 79.5t-33 55.5t-50 36t-71 21t-85 9t-103 2h-139v-371z" />
<glyph unicode="C" horiz-adv-x="1275" d="M72 733q0 169 55.5 310t152 236t229 147.5t284.5 52.5q279 0 438 -142l-78 -211q-70 59 -147 88t-197 29q-193 0 -313.5 -139t-120.5 -373q0 -251 118.5 -385.5t313.5 -134.5q210 0 352 108l74 -213q-104 -75 -210 -100.5t-232 -25.5q-147 0 -276.5 51t-228.5 144.5 t-156.5 237.5t-57.5 320z" />
<glyph unicode="D" horiz-adv-x="1495" d="M121 0v1446h391q167 0 304 -24.5t251 -79t192 -138.5t121 -206.5t43 -278.5q0 -231 -105 -394.5t-288 -244t-428 -80.5h-481zM420 223h201q244 0 374.5 127t130.5 365q0 142 -36 239.5t-112 156.5t-183.5 84.5t-259.5 25.5h-115v-998z" />
<glyph unicode="E" horiz-adv-x="1128" d="M121 0v1446h942l-25 -219h-618v-359h596v-217h-596v-432l672 -8l-13 -211h-958z" />
<glyph unicode="F" horiz-adv-x="1038" d="M121 0v1446h907l-20 -219h-590v-373h569v-217h-567v-637h-299z" />
<glyph unicode="G" horiz-adv-x="1429" d="M72 733q0 127 31 239.5t93 205.5t149 160t205 104t255 37q301 0 479 -142l-88 -194q-172 100 -377 100q-208 0 -325.5 -130.5t-118.5 -381.5v-8q0 -150 44 -263t141 -181t237 -68q158 0 260 57v316h-312l13 207h565v-676q-133 -66 -251 -100.5t-265 -34.5 q-333 0 -534 204.5t-201 548.5z" />
<glyph unicode="H" horiz-adv-x="1472" d="M121 0v1446h299v-592h635v592h299v-1446h-299v645h-635v-645h-299z" />
<glyph unicode="I" horiz-adv-x="565" d="M133 0v1446h299v-1446h-299z" />
<glyph unicode="J" horiz-adv-x="634" d="M-45 -88h82q111 0 145.5 46t34.5 171v1317h297v-1307q0 -100 -14.5 -170.5t-48 -124.5t-92 -85t-141.5 -46.5t-200 -15.5h-47z" />
<glyph unicode="K" horiz-adv-x="1306" d="M121 0v1446h299v-602l504 602h354l-549 -660l608 -786h-346l-495 657l-76 -75v-582h-299z" />
<glyph unicode="L" horiz-adv-x="1003" d="M121 0v1446h299v-1229h588l-17 -217h-870z" />
<glyph unicode="M" horiz-adv-x="1734" d="M121 0v1446h280l471 -911l467 911h277v-1446h-266v950l-371 -743h-215l-379 751v-958h-264z" />
<glyph unicode="N" horiz-adv-x="1447" d="M121 0v1446h248l686 -975v975h272v-1446h-254l-680 975v-975h-272z" />
<glyph unicode="O" horiz-adv-x="1593" d="M72 727q0 175 55 317.5t152 237t230 146t288 51.5q156 0 289 -51.5t230.5 -146t152.5 -237t55 -317.5q0 -173 -55.5 -315t-153 -236t-230.5 -145t-288 -51q-208 0 -371 87.5t-258.5 258.5t-95.5 401zM375 723q0 -236 108.5 -374t315.5 -138q208 0 318 138.5t110 373.5 q0 237 -109.5 378.5t-318.5 141.5q-207 0 -315.5 -141.5t-108.5 -378.5z" />
<glyph unicode="P" horiz-adv-x="1204" d="M121 0v1446h483q271 0 422.5 -111t151.5 -340q0 -471 -549 -471q-135 0 -209 6v-530h-299zM420 737q25 -2 162 -2q76 0 132.5 14t89 36.5t52.5 56t26.5 66t6.5 73.5v4q0 118 -73.5 181t-209.5 63h-186v-492z" />
<glyph unicode="Q" horiz-adv-x="1593" d="M72 727q0 175 55 317.5t152 237t230 146t288 51.5q156 0 289 -51.5t230.5 -146t152.5 -237t55 -317.5q0 -173 -55.5 -315t-153 -236t-230.5 -145t-288 -51q-208 0 -371 87.5t-258.5 258.5t-95.5 401zM375 723q0 -236 108.5 -374t315.5 -138q208 0 318 138.5t110 373.5 q0 237 -109.5 378.5t-318.5 141.5q-207 0 -315.5 -141.5t-108.5 -378.5zM887 -12l174 114q59 -105 136 -201.5t212 -219.5l-152 -150q-97 70 -200 201.5t-170 255.5z" />
<glyph unicode="R" horiz-adv-x="1302" d="M121 0v1446h557q107 0 187.5 -10.5t151.5 -38t116 -73.5t70.5 -118.5t25.5 -171.5q0 -288 -258 -383q29 -34 55 -75.5t40 -69t44 -88.5l205 -418h-314l-157 344l-127 250q-19 2 -93.5 3t-139.5 1h-64v-598h-299zM420 809h266q140 0 203 51.5t63 169.5q0 103 -65 151 t-195 48h-272v-420z" />
<glyph unicode="S" horiz-adv-x="1191" d="M63 104l78 218q77 -49 199 -81t242 -32q268 0 268 172q0 39 -12.5 70.5t-30.5 52t-51 40t-60.5 30t-72.5 26.5l-183 62q-61 20 -108.5 41t-97.5 55.5t-83 75.5t-54 101t-21 132q0 133 72 228t189 139.5t265 44.5q313 0 473 -115l-78 -201q-146 90 -395 90 q-229 0 -229 -157q0 -76 38 -114.5t113 -63.5l199 -66q54 -18 91.5 -32.5t85 -37t80.5 -45.5t67 -56t54 -70.5t33 -87t13 -107.5q0 -109 -43 -193t-120 -136.5t-178 -79.5t-222 -27q-328 0 -521 124z" />
<glyph unicode="T" horiz-adv-x="1089" d="M-27 1227v219h1143v-219h-424v-1227h-297v1227h-422z" />
<glyph unicode="U" horiz-adv-x="1388" d="M106 539v907h300v-893q0 -184 63.5 -264t224.5 -80t226 80t65 264v893h297v-907q0 -273 -147 -416t-441 -143t-441 143t-147 416z" />
<glyph unicode="V" horiz-adv-x="1318" d="M-10 1446h297l387 -1088l368 1088h289l-528 -1446h-264z" />
<glyph unicode="W" horiz-adv-x="2078" d="M-14 1446h286l285 -1059l361 1059h245l326 -1069l319 1069h285l-465 -1446h-280l-310 1063l-356 -1063h-276z" />
<glyph unicode="X" horiz-adv-x="1325" d="M-33 0l529 729l-482 717h324l340 -526l358 526h305l-499 -715l518 -731h-340l-356 524l-375 -524h-322z" />
<glyph unicode="Y" horiz-adv-x="1241" d="M-37 1446h309l353 -604l348 604h305l-502 -860v-586h-297v586z" />
<glyph unicode="Z" horiz-adv-x="1210" d="M57 0v172l754 1055h-721v219h1092v-160l-758 -1069h750v-217h-1117z" />
<glyph unicode="[" horiz-adv-x="604" d="M121 -188v1757h452v-183h-153v-1392h153v-182h-452z" />
<glyph unicode="\" horiz-adv-x="970" d="M35 1460h223l680 -1579h-221z" />
<glyph unicode="]" horiz-adv-x="604" d="M33 -6h153v1392h-153v183h452v-1757h-452v182z" />
<glyph unicode="^" horiz-adv-x="1179" d="M41 551l483 891h127l490 -891h-215l-340 641l-328 -641h-217z" />
<glyph unicode="_" horiz-adv-x="1144" d="M70 -135h1005v-189h-1005v189z" />
<glyph unicode="`" horiz-adv-x="468" d="M-39 1516h313l230 -340h-209q-56 56 -167.5 169.5t-166.5 170.5z" />
<glyph unicode="a" horiz-adv-x="1069" d="M68 285q0 50 8 91t27.5 73t42 56.5t61.5 44t75 33t94 26t107.5 21t124.5 19.5l76 13v49q0 53 -4 81.5t-19.5 54t-47 36t-85.5 12.5h-14q-113 0 -330 -74l-55 203q162 74 410 80h24q189 0 297.5 -88.5t108.5 -257.5v-758h-217l-29 115q-79 -67 -152 -101t-168 -34 q-151 0 -243 82.5t-92 222.5zM322 295q0 -61 33.5 -97t97.5 -36q46 0 88.5 13t69 28t73.5 47v252l-76 -13q-41 -6 -66.5 -10.5t-59 -12.5t-54 -17t-43 -23.5t-35 -32t-20.5 -42.5t-8 -56z" />
<glyph unicode="b" horiz-adv-x="1243" d="M106 0v1497h283v-555q33 66 116 113.5t208 48.5h8q142 0 248.5 -78.5t158.5 -203.5t52 -275q0 -159 -57.5 -288t-164 -204t-241.5 -75h-15q-112 0 -192 47t-121 123l-4 -150h-279zM385 539q0 -99 21 -170t58.5 -109t80.5 -55t96 -17q51 0 95.5 17.5t84.5 56t63 109.5 t23 168q0 82 -16 146t-41.5 103t-61 63.5t-71.5 34t-76 9.5q-51 0 -94.5 -18.5t-81 -57.5t-59 -111t-21.5 -169z" />
<glyph unicode="c" horiz-adv-x="944" d="M63 555q0 108 28.5 199t78 155t116.5 108.5t142.5 65.5t157.5 21h8q104 -1 175 -24.5t138 -71.5l-45 -189q-38 27 -107.5 51.5t-133.5 24.5q-127 0 -206 -86.5t-79 -263.5q0 -185 77 -273t214 -88q128 0 239 80l54 -190q-73 -49 -144 -71.5t-166 -22.5h-4 q-118 0 -216 35.5t-171.5 105.5t-114.5 180.5t-41 253.5z" />
<glyph unicode="d" horiz-adv-x="1239" d="M66 547q0 113 32 213.5t91.5 177t152 121.5t205.5 45q123 0 199 -46.5t110 -115.5v555h283v-1497h-277l-6 150q-90 -170 -303 -170h-14q-150 3 -258 78.5t-161.5 201.5t-53.5 287zM338 539q0 -97 23 -168t62 -109.5t83.5 -56t95.5 -17.5q53 0 96.5 17t81 55t59 109 t21.5 170q0 97 -22 169t-60 111t-81.5 57.5t-94.5 18.5q-40 0 -75.5 -9.5t-71 -34t-61 -63.5t-41 -103t-15.5 -146z" />
<glyph unicode="e" horiz-adv-x="1107" d="M63 541q0 158 60.5 284.5t180.5 202.5t280 76q118 0 210 -44t148.5 -120t85.5 -172t29 -205v-4q0 -13 -1 -39.5t-1 -40.5v-4h-713q4 -144 81.5 -217.5t217.5 -73.5q91 0 171.5 27.5t133.5 67.5l78 -175q-158 -124 -393 -124q-273 0 -420.5 150t-147.5 411zM344 627h455 v10q0 128 -54.5 193t-156.5 65q-38 0 -75.5 -12.5t-75 -41t-63 -83.5t-30.5 -131z" />
<glyph unicode="f" horiz-adv-x="694" d="M6 895v168h172v33q0 52 1.5 90t6.5 80.5t14 72.5t24 61t37 52t52.5 40t70 30t90.5 17.5t114 6.5h94l25 -211h-93q-92 0 -122.5 -40.5t-30.5 -143.5v-88h237v-168h-237v-895h-283v895h-172z" />
<glyph unicode="g" horiz-adv-x="1249" d="M68 549q0 133 42 241.5t110.5 175.5t153 102.5t173.5 35.5h2q216 0 317 -146v105h283v-997q0 -149 -31 -249.5t-106 -170.5t-201.5 -101.5t-316.5 -31.5h-138l-20 219h113q64 0 95 0.5t79 3t69.5 8.5t54 16.5t46 27.5t32 40.5t25 56.5t11.5 75.5t5 96.5v86 q-47 -67 -116 -105t-187 -38q-102 0 -192 37.5t-157.5 106t-106.5 173.5t-39 232zM340 547q0 -150 75.5 -245t192.5 -95h8q116 0 189.5 92t73.5 248q0 159 -74 252.5t-189 95.5h-6q-131 0 -200.5 -92.5t-69.5 -255.5z" />
<glyph unicode="h" horiz-adv-x="1198" d="M100 0v1497h285v-551q154 158 342 158q79 0 144.5 -24.5t119.5 -76.5t84.5 -143t30.5 -213v-647h-285v639q0 130 -33.5 193t-125.5 63q-83 0 -158 -53t-119 -127v-715h-285z" />
<glyph unicode="i" horiz-adv-x="526" d="M127 0v1063h283v-1063h-283zM127 1245v234h285v-234h-285z" />
<glyph unicode="j" horiz-adv-x="552" d="M-66 -193h60q47 0 77.5 6.5t50.5 19.5t29.5 39.5t13 59t3.5 86.5v1045h283v-981q0 -74 -4 -128.5t-15.5 -107.5t-31.5 -89.5t-51.5 -68.5t-76.5 -50t-106.5 -28.5t-140.5 -10.5h-62zM168 1245v234h283v-234h-283z" />
<glyph unicode="k" horiz-adv-x="1107" d="M100 0v1497h285v-838l397 404h338l-424 -436l471 -627h-346l-362 518l-74 -55v-463h-285z" />
<glyph unicode="l" horiz-adv-x="655" d="M119 455v1024l282 18v-1081q0 -68 4.5 -103.5t21.5 -64.5t50 -39t90 -10q23 0 38 1t19 2l3 1l12 -203q-55 -12 -147 -12q-94 0 -162 23.5t-108.5 62t-64 100.5t-31 127t-7.5 154z" />
<glyph unicode="m" horiz-adv-x="1835" d="M102 0v1063h240l23 -141q61 78 155 128.5t205 53.5h12q204 0 275 -180q152 180 370 180h13q95 0 164.5 -34t109 -97t58 -142.5t18.5 -179.5v-651h-283v592q0 169 -26.5 236t-114.5 67h-6q-90 -3 -147.5 -49t-98.5 -121v-725h-283v610q0 54 -3 92.5t-12.5 77t-26.5 62.5 t-46.5 38.5t-70.5 14.5q-144 0 -242 -168v-727h-283z" />
<glyph unicode="n" horiz-adv-x="1196" d="M100 0v1063h238l22 -141q68 81 166 132q96 50 207 50h4q186 -3 277.5 -126.5t91.5 -330.5v-647h-285v621q0 44 -1.5 72t-6.5 63.5t-17 57.5t-30.5 42t-49 29.5t-71.5 9.5q-75 0 -150 -51t-110 -119v-725h-285z" />
<glyph unicode="o" horiz-adv-x="1175" d="M63 539q0 167 58 293t178 199t289 73q252 0 388 -154.5t136 -410.5q0 -251 -136 -405t-388 -154t-388.5 154t-136.5 405zM336 539q0 -170 68 -261.5t184 -91.5q117 0 185.5 91.5t68.5 261.5q0 174 -69 265t-185 91t-184 -91t-68 -265z" />
<glyph unicode="p" horiz-adv-x="1243" d="M104 -410v1473h256l21 -141q85 182 315 182q118 0 212.5 -48t152.5 -127.5t88.5 -177.5t30.5 -204q0 -115 -31 -216.5t-89 -179.5t-149 -124t-204 -47h-7q-217 0 -313 151v-512zM385 539q0 -99 22.5 -170t61.5 -109t84.5 -55t99.5 -17q50 0 93.5 18.5t80.5 57.5 t58.5 109.5t21.5 165.5q0 102 -22.5 175t-62 110.5t-83 54t-94.5 16.5t-95 -18.5t-82 -57.5t-60.5 -111t-22.5 -169z" />
<glyph unicode="q" horiz-adv-x="1239" d="M66 547q0 106 30 204t87.5 177.5t151.5 127.5t212 48q230 0 315 -182l21 141h256v-1442l-283 -31v560q-54 -86 -125.5 -128t-193.5 -42q-113 1 -203.5 46.5t-148.5 124t-88.5 180t-30.5 216.5zM338 539q0 -97 23 -168t62 -109.5t83.5 -56t95.5 -17.5q53 0 96.5 17t81 55 t59 109t21.5 170q0 97 -22 169t-60 111t-81.5 57.5t-94.5 18.5q-40 0 -75.5 -9.5t-71 -34t-61 -63.5t-41 -103t-15.5 -146z" />
<glyph unicode="r" horiz-adv-x="667" d="M102 0v1063h263l20 -145q54 75 114.5 110t155.5 35h29l14 -215h-75q-73 0 -121.5 -18t-73 -55t-34 -81t-9.5 -108v-586h-283z" />
<glyph unicode="s" horiz-adv-x="909" d="M53 88l56 184q62 -40 166.5 -64t189.5 -24q64 0 103.5 26.5t39.5 82.5q0 45 -21 68.5t-83 46.5l-160 59q-63 23 -109 48.5t-86 62t-60.5 86.5t-20.5 114q0 160 107 243t286 83q233 0 358 -86l-49 -184q-52 28 -137.5 46.5t-149.5 18.5q-85 0 -124 -21.5t-42 -66.5v-11 q-1 -44 21 -64q24 -23 100 -50l164 -57q113 -39 188.5 -115.5t75.5 -189.5q0 -69 -22.5 -129.5t-66 -108.5t-115 -76t-162.5 -28q-298 0 -447 106z" />
<glyph unicode="t" horiz-adv-x="772" d="M-29 893l17 170h168l69 387h213v-387h262v-170h-262v-453q0 -51 1.5 -80.5t7 -60t16 -46t29 -28.5t46 -17.5t66.5 -4.5l90 6l17 -209q-105 -12 -160 -12q-98 0 -167.5 19.5t-114 55t-69.5 95.5t-34.5 130t-9.5 169v436h-185z" />
<glyph unicode="u" horiz-adv-x="1153" d="M92 385v678h283v-674q0 -108 51 -155.5t149 -47.5q99 0 151 47.5t52 155.5v674h285v-678q0 -199 -131.5 -302t-356.5 -103q-224 0 -353.5 101.5t-129.5 303.5z" />
<glyph unicode="v" horiz-adv-x="1105" d="M2 1063h297l285 -766l227 766h293l-391 -1063h-264z" />
<glyph unicode="w" horiz-adv-x="1693" d="M2 1063h283l190 -682l252 682h246l213 -678l223 678h281l-387 -1063h-236l-223 766l-271 -766h-233z" />
<glyph unicode="x" horiz-adv-x="1161" d="M27 0l372 539l-352 524h309l232 -367l246 367h292l-360 -520l373 -543h-318l-233 377l-254 -377h-307z" />
<glyph unicode="y" horiz-adv-x="1077" d="M-16 1063h284l281 -709l242 709h292l-436 -1135q-40 -104 -82.5 -169.5t-98 -103t-118.5 -51.5t-153 -14h-138l-26 203h73h27q75 0 105.5 3.5t68 26.5t59 71.5t48.5 140.5z" />
<glyph unicode="z" horiz-adv-x="966" d="M66 0v162l483 721h-459v180h807v-145l-481 -730h497v-188h-847z" />
<glyph unicode="{" horiz-adv-x="788" d="M55 526v238h95q64 0 83 46t19 155v286q0 158 92 224.5t264 66.5h101v-217h-29q-32 0 -53 -3t-36 -13t-22.5 -20.5t-11.5 -33.5t-5 -43t-1 -59v-240q0 -125 -54 -186t-155 -82q101 -21 155 -82t54 -186v-242q0 -57 2.5 -83t15 -49.5t38.5 -30.5t73 -7h29v-219h-101 q-172 0 -264 67.5t-92 225.5v287q0 108 -19 154t-83 46h-95z" />
<glyph unicode="|" horiz-adv-x="362" d="M70 -281v1780h225v-1780h-225z" />
<glyph unicode="}" horiz-adv-x="788" d="M80 -35h31q47 0 73 7t38.5 30.5t15 49.5t2.5 83v242q0 126 53 187t153 81q-100 20 -153 81t-53 187v240q0 39 -1 59t-5 43t-11.5 33.5t-22.5 20.5t-36 13t-53 3h-31v217h100q84 0 147 -14.5t111.5 -47.5t73.5 -90.5t25 -138.5v-286q0 -109 19 -155t83 -46h94v-238h-94 q-64 0 -83 -46t-19 -154v-287q0 -158 -92.5 -225.5t-264.5 -67.5h-100v219z" />
<glyph unicode="~" horiz-adv-x="1417" d="M172 442l4 23q24 106 106 180t207 74q71 0 141 -23.5t144 -60t107 -47.5q24 -8 43 -8q50 0 84.5 39t48.5 92q1 5 4 15t4 15l174 -55l-6 -24q-13 -55 -37 -102t-60.5 -87.5t-91.5 -64t-122 -23.5q-62 0 -123 21.5t-102.5 47.5t-96 48.5t-104.5 23.5l-2 -2h-2 q-59 0 -97 -33.5t-51 -82.5l-6 -37z" />
<glyph unicode="&#xa1;" horiz-adv-x="749" d="M244 834v266h262v-266h-262zM291 -385v1139h207v-1139h-207z" />
<glyph unicode="&#xa2;" horiz-adv-x="964" d="M84 653q0 134 43.5 241.5t117.5 173t166 100t195 34.5h8q104 -1 176 -24.5t138 -71.5l-45 -188q-38 27 -107.5 51t-134.5 24q-127 0 -206 -86.5t-79 -263.5q0 -185 77 -272.5t214 -87.5q130 0 240 79l53 -190q-73 -49 -143.5 -71.5t-165.5 -22.5h-4q-118 0 -216 35.5 t-171.5 105.5t-114.5 180.5t-41 253.5zM561 -197v1643h103v-1643h-103z" />
<glyph unicode="&#xa3;" horiz-adv-x="1114" d="M39 631v190h184v84q0 104 13.5 187.5t46.5 157.5t86 124t135.5 78.5t191.5 28.5q245 0 375 -187l12 -18l-127 -141q-35 35 -54.5 52t-53 40t-70.5 33t-82 10q-225 0 -225 -283v-164h381v-192h-379v-127q0 -181 -67 -295h659v-209h-987l-33 168l23 8q87 36 121 93t34 175 v187h-184z" />
<glyph unicode="&#xa4;" horiz-adv-x="878" d="M53 664q0 226 166 346l-145 272l94 37l131 -252q64 20 143 20q39 0 109 -12l92 246l92 -37l-96 -260q186 -111 186 -354q0 -103 -38.5 -186t-104.5 -138l145 -274l-86 -41l-135 272q-81 -33 -170 -33q-54 0 -94 6l-90 -245l-82 39l84 235q-95 51 -148 142t-53 217z M203 666q0 -132 58.5 -208.5t178.5 -76.5q117 0 175.5 74t60.5 200v11q0 135 -58.5 211.5t-181.5 76.5q-117 0 -175 -78.5t-58 -209.5z" />
<glyph unicode="&#xa5;" horiz-adv-x="1222" d="M-37 1446h309l353 -604l348 604h305l-502 -860v-586h-297v586zM145 287v162h973v-162h-973zM145 575v162h973v-162h-973z" />
<glyph unicode="&#xa6;" horiz-adv-x="522" d="M147 -279v629h224v-629h-224zM147 868v631h224v-631h-224z" />
<glyph unicode="&#xa7;" horiz-adv-x="907" d="M51 733q0 149 139 242q-104 90 -104 229q0 83 36 145.5t97 99t135 54t158 17.5q33 0 62.5 -3t59 -9.5t48 -11.5t52 -15.5t48.5 -14.5l4 -264q-5 2 -38 18t-42.5 20.5t-39 16t-47.5 15.5t-46 8t-55 4q-172 0 -172 -80q0 -40 28 -71t73.5 -52.5t100 -41.5t109 -45t100 -57 t73.5 -83t28 -117q0 -142 -133 -245q113 -84 113 -222q0 -85 -38 -151.5t-102.5 -106.5t-143.5 -60t-167 -20q-144 0 -309 68v268q54 -32 91 -50.5t95.5 -35t116.5 -16.5q92 0 142 27.5t50 72.5q0 35 -29 63.5t-75 50t-101.5 43t-111 48.5t-101.5 60.5t-75 85.5t-29 116z M299 743q0 -25 12 -46.5t28 -36t46.5 -31t51 -24.5t59.5 -23q54 34 83 67t29 76q0 25 -11 45t-36 35.5t-44.5 25t-59.5 25t-58 23.5q-49 -29 -74.5 -60.5t-25.5 -75.5z" />
<glyph unicode="&#xa8;" horiz-adv-x="765" d="M63 1231v266h207v-266h-207zM487 1231v266h209v-266h-209z" />
<glyph unicode="&#xa9;" horiz-adv-x="1671" d="M80 727q0 154 60 293.5t161 240t241.5 159.5t295.5 59q205 0 378.5 -100t275 -273.5t101.5 -378.5q0 -154 -60 -292.5t-161 -238t-240.5 -158t-293.5 -58.5q-155 0 -295 58.5t-241.5 158t-161.5 238t-60 292.5zM197 727q0 -175 85.5 -323.5t233 -235t322.5 -86.5 t322 86.5t232 235t85 323.5t-85 324t-232 236t-322 87t-322.5 -87t-233 -236t-85.5 -324zM373 729q0 133 55 244.5t156.5 177.5t228.5 66q180 0 299 -80l-43 -113q-121 68 -246 68q-139 0 -221 -106t-82 -259q0 -96 32 -173t102.5 -126t170.5 -49q125 0 244 67l43 -116 q-119 -80 -295 -80q-192 0 -318 135t-126 344z" />
<glyph unicode="&#xaa;" horiz-adv-x="731" d="M55 954q0 62 21.5 107t54.5 70t84.5 41.5t98 24t108.5 14.5q37 4 55 6q-5 64 -21.5 83t-76.5 19t-96.5 -20.5t-63.5 -61.5l-22 -33l-105 121q87 162 291 162q125 0 203 -71.5t78 -201.5l-2 -319q0 -39 6 -127l2 -33h-185l-2 37q-72 -55 -161 -55h-5q-109 0 -185.5 63.5 t-76.5 173.5zM246 956q0 -39 22 -57t68 -18q68 0 100.5 45.5t40.5 128.5q-17 -2 -49.5 -6t-49 -6t-41.5 -7t-38 -11t-27 -15.5t-20 -22.5t-6 -31z" />
<glyph unicode="&#xab;" horiz-adv-x="931" d="M33 547l284 377h230l-277 -377l267 -377h-226zM389 547l287 377h223l-270 -377l262 -377h-221z" />
<glyph unicode="&#xac;" horiz-adv-x="1417" d="M184 608v201h1041v-571h-203v370h-838z" />
<glyph unicode="&#xad;" horiz-adv-x="696" d="M70 432v195h559v-195h-559z" />
<glyph unicode="&#xae;" horiz-adv-x="1671" d="M80 727q0 154 60 293.5t161 240t241.5 159.5t295.5 59q205 0 378.5 -100t275 -273.5t101.5 -378.5q0 -154 -60 -292.5t-161 -238t-240.5 -158t-293.5 -58.5q-155 0 -295 58.5t-241.5 158t-161.5 238t-60 292.5zM197 727q0 -175 85.5 -323.5t233 -235t322.5 -86.5 t322 86.5t232 235t85 323.5t-85 324t-232 236t-322 87t-322.5 -87t-233 -236t-85.5 -324zM530 260v948h310q323 0 323 -258q0 -112 -44.5 -170t-151.5 -86q74 -112 241 -434h-170l-123 232l-94 186h-137v-418h-154zM682 803h117q55 0 90.5 5t66.5 20t45.5 45t14.5 77 q0 24 -3.5 43t-12.5 33t-17.5 23.5t-26.5 16t-31.5 10t-40 5t-44.5 2t-52 0.5h-106v-280z" />
<glyph unicode="&#xaf;" horiz-adv-x="860" d="M98 1335v162h678v-162h-678z" />
<glyph unicode="&#xb0;" horiz-adv-x="841" d="M86 1153q0 129 95.5 214t232.5 85q135 0 231 -82t96 -217q0 -129 -95.5 -214t-231.5 -85q-135 0 -231.5 86t-96.5 213zM264 1155q0 -55 42.5 -90t107.5 -35q66 0 107.5 35.5t41.5 89.5q0 52 -39 86t-100 37h-10q-64 0 -107 -35t-43 -88z" />
<glyph unicode="&#xb1;" horiz-adv-x="1443" d="M172 768h432v348h219v-348h424v-199h-420v-370h424v-199h-1065v199h420v370h-418z" />
<glyph unicode="&#xb2;" horiz-adv-x="804" d="M86 1331q2 3 14.5 17t41.5 37t64.5 43.5t88.5 35.5t108 15q140 0 226 -69t86 -193q0 -56 -20 -111t-46.5 -95.5t-73.5 -88t-79 -74.5t-87 -70.5t-75 -60.5h364v-164h-596v143q255 274 305 333q81 99 91 158q2 12 2 25q0 44 -25 65t-67 21q-55 0 -112.5 -30t-102.5 -78z " />
<glyph unicode="&#xb3;" horiz-adv-x="790" d="M68 1350q137 129 323 129q85 0 152 -24t112 -82.5t45 -145.5q0 -146 -125 -199q72 -40 105 -93.5t33 -131.5q0 -137 -92 -205t-230 -68q-171 0 -303 91l64 141q3 -1 23 -10t25.5 -11t24.5 -9.5t28 -10l27 -7.5t31.5 -7t31.5 -3.5t36 -1.5q60 0 92.5 34.5t32.5 84.5 q0 48 -31 83.5t-86 35.5h-129v152h127q119 0 119 106q0 56 -32.5 84.5t-84.5 28.5q-25 0 -49.5 -4.5t-41 -8.5t-41.5 -15.5t-34.5 -16.5t-36.5 -20.5t-32 -18.5z" />
<glyph unicode="&#xb4;" horiz-adv-x="610" d="M213 1176l166 383h313l-311 -383h-168z" />
<glyph unicode="&#xb6;" horiz-adv-x="1236" d="M96 1120q0 81 30.5 142t80.5 98.5t123.5 60t149.5 31t169 8.5h400v-182h-82v-1425h-185v1425h-141v-1425h-215v907q-151 15 -240.5 113t-89.5 247z" />
<glyph unicode="&#xb7;" horiz-adv-x="405" d="M70 463v270h266v-270h-266z" />
<glyph unicode="&#xb8;" horiz-adv-x="585" d="M43 -340l127 367h164l-62 -367h-229z" />
<glyph unicode="&#xb9;" horiz-adv-x="694" d="M102 1219v167q101 28 197 60l164 18v-741h135v-170h-485v170h133v520z" />
<glyph unicode="&#xba;" horiz-adv-x="841" d="M45 1104q0 172 104 277.5t277 105.5q174 0 274.5 -106t100.5 -279q0 -171 -102 -278t-273 -107q-178 0 -279.5 105.5t-101.5 281.5zM240 1104q0 -219 186 -219q93 0 137.5 57.5t44.5 157.5q0 103 -45.5 161t-140.5 58q-91 0 -135.5 -56t-46.5 -151v-8z" />
<glyph unicode="&#xbb;" horiz-adv-x="1150" d="M145 170l273 377l-264 377h223l278 -377l-284 -377h-226zM526 170l273 377l-264 377h223l276 -377l-282 -377h-226z" />
<glyph unicode="&#xbc;" horiz-adv-x="2015" d="M201 1128v228l35 10q80 25 151 70v4q4 0 10 6l4 -4l160 22v-673h127v-207h-459v219h115v217v147v17q-50 -21 -76 -29zM403 0l1029 1446h210q-4 -4 -4 -6l-1013 -1440h-222zM1049 201v125l397 518h174v-477h100l17 -166h-117l-2 -164h-174v164h-395zM1290 367h152v202z " />
<glyph unicode="&#xbd;" horiz-adv-x="1898" d="M219 1157l2 182q22 6 68.5 26t82.5 37l36 17l133 23v-672h129v-166h-420v178h115v435q-62 -29 -146 -60zM348 0l1022 1446h221q-4 -4 -4 -6l-1022 -1440h-217zM1049 -25v144q24 19 91.5 66.5t118.5 87t108 91t88.5 103.5t31.5 100q0 37 -29.5 56.5t-85.5 19.5 q-37 0 -66 -11.5t-50 -35.5t-34 -46t-30 -58l-141 122q42 95 124 151t205 56q128 0 207.5 -63.5t79.5 -175.5q0 -31 -6 -61t-13.5 -54.5t-24 -51.5t-28.5 -46t-36 -44t-37.5 -39t-41.5 -37.5t-40 -33t-42 -32.5t-38 -29h305v-179h-616z" />
<glyph unicode="&#xbe;" horiz-adv-x="1931" d="M164 709l88 147l27 -27q72 -69 151 -69q63 0 100 25t37 69q0 52 -43 72t-131 20q-1 0 -11 -1t-17 -1h-56v180h78q79 0 118.5 18t39.5 60q0 37 -25.5 53.5t-79.5 16.5q-81 0 -164 -72l-26 -22l-84 145l14 16q47 48 115.5 79.5t146.5 31.5q122 0 204.5 -65.5t82.5 -178.5 v-2q-3 -101 -76 -168q95 -72 95 -188q0 -122 -90.5 -192t-223.5 -70q-153 0 -256 106zM354 -23l1028 1479v8h263q-4 -6 -12.5 -19.5t-12.5 -19.5l-1004 -1448h-262zM997 203v125l398 518h174v-477h100l17 -166h-119v-164h-174v164h-396zM1239 369h152v202z" />
<glyph unicode="&#xbf;" horiz-adv-x="1064" d="M248 338q0 79 39.5 162.5t92 149t128 169.5t125.5 197h119q-13 -84 -47.5 -164.5t-73 -140.5t-75.5 -115.5t-61 -111t-24 -105.5q0 -85 53 -138t146 -53q150 0 280 86l76 -174q-87 -55 -173 -82.5t-212 -27.5q-53 0 -107 12.5t-105.5 40.5t-91.5 67.5t-64.5 98.5 t-24.5 129zM541 1329q0 66 47 113t112 47q66 0 114 -47t48 -113t-48 -114t-114 -48q-65 0 -112 48t-47 114z" />
<glyph unicode="&#xc0;" d="M-10 0l39 121l487 1325h281l473 -1325l41 -121h-283l-158 444h-428l-157 -444h-295zM262 1939h313l230 -340h-209q-55 56 -167 169.5t-167 170.5zM506 627h295l-144 489z" />
<glyph unicode="&#xc1;" d="M-10 0l39 121l487 1325h281l473 -1325l41 -121h-283l-158 444h-428l-157 -444h-295zM506 627h295l-144 489zM614 1599l166 383h314l-312 -383h-168z" />
<glyph unicode="&#xc2;" d="M-10 0l39 121l487 1325h281l473 -1325l41 -121h-283l-158 444h-428l-157 -444h-295zM313 1599l265 383h198l264 -383h-194l-172 201l-172 -201h-189zM506 627h295l-144 489z" />
<glyph unicode="&#xc3;" d="M-10 0l39 121l487 1325h281l473 -1325l41 -121h-283l-158 444h-428l-157 -444h-295zM336 1608q0 27 0.5 42t3.5 44.5t9 47.5t18.5 41.5t30 37t44.5 23t62 9.5q58 0 126 -19.5t121 -39.5t74 -20q47 0 47 79h160q0 -30 -1 -47.5t-5 -51.5t-15 -55.5t-28.5 -44.5t-48 -34.5 t-70.5 -11.5q-49 0 -123.5 22t-132.5 44t-69 22q-25 0 -36 -20.5t-11 -67.5h-156zM506 627h295l-144 489z" />
<glyph unicode="&#xc4;" d="M-10 0l39 121l487 1325h281l473 -1325l41 -121h-283l-158 444h-428l-157 -444h-295zM360 1602v266h207v-266h-207zM506 627h295l-144 489zM784 1602v266h209v-266h-209z" />
<glyph unicode="&#xc5;" d="M-10 0l39 121l487 1325h281l473 -1325l41 -121h-283l-158 444h-428l-157 -444h-295zM467 1651q0 84 58.5 144t166.5 60t168 -60t60 -144t-61 -147.5t-167 -63.5t-165.5 63t-59.5 148zM506 627h295l-144 489zM586 1651q0 -45 27.5 -78t78.5 -33t79 33t28 78t-28 77.5 t-79 32.5q-50 0 -78 -32.5t-28 -77.5z" />
<glyph unicode="&#xc6;" horiz-adv-x="1935" d="M20 14l795 1446h997v-207h-659l31 -399h590v-207h-570v-10l33 -414h598v-209h-786l-29 359h-543l-203 -359h-254zM582 582h417l-51 682z" />
<glyph unicode="&#xc7;" horiz-adv-x="1275" d="M72 733q0 169 55.5 310t152 236t229 147.5t284.5 52.5q279 0 438 -142l-78 -211q-70 59 -147 88t-197 29q-193 0 -313.5 -139t-120.5 -373q0 -251 118.5 -385.5t313.5 -134.5q210 0 352 108l74 -213q-104 -75 -210 -100.5t-232 -25.5q-147 0 -276.5 51t-228.5 144.5 t-156.5 237.5t-57.5 320zM565 -375l127 367h164l-61 -367h-230z" />
<glyph unicode="&#xc8;" horiz-adv-x="1128" d="M121 0v1446h942l-25 -219h-618v-359h596v-217h-596v-432l672 -8l-13 -211h-958zM131 1939h313l230 -340h-209q-56 56 -167 169.5t-167 170.5z" />
<glyph unicode="&#xc9;" horiz-adv-x="1128" d="M121 0v1446h942l-25 -219h-618v-359h596v-217h-596v-432l672 -8l-13 -211h-958zM481 1599l166 383h314l-312 -383h-168z" />
<glyph unicode="&#xca;" horiz-adv-x="1128" d="M121 0v1446h942l-25 -219h-618v-359h596v-217h-596v-432l672 -8l-13 -211h-958zM182 1599l264 383h199l264 -383h-194l-172 201l-172 -201h-189z" />
<glyph unicode="&#xcb;" horiz-adv-x="1128" d="M121 0v1446h942l-25 -219h-618v-359h596v-217h-596v-432l672 -8l-13 -211h-958zM227 1602v266h207v-266h-207zM651 1602v266h209v-266h-209z" />
<glyph unicode="&#xcc;" horiz-adv-x="565" d="M-190 1939h313l229 -340h-209q-56 56 -167 169.5t-166 170.5zM133 0v1446h299v-1446h-299z" />
<glyph unicode="&#xcd;" horiz-adv-x="565" d="M133 0v1446h299v-1446h-299zM160 1599l166 383h313l-311 -383h-168z" />
<glyph unicode="&#xce;" horiz-adv-x="565" d="M-139 1599l264 383h199l264 -383h-195l-172 201l-172 -201h-188zM133 0v1446h299v-1446h-299z" />
<glyph unicode="&#xcf;" horiz-adv-x="565" d="M-94 1602v266h207v-266h-207zM133 0v1446h299v-1446h-299zM330 1602v266h209v-266h-209z" />
<glyph unicode="&#xd0;" horiz-adv-x="1548" d="M-2 635v192h131v619h391q167 0 304 -24.5t251.5 -79t192.5 -138.5t121 -206.5t43 -278.5q0 -230 -105 -394t-288.5 -244.5t-428.5 -80.5h-481v635h-131zM428 223h201q245 0 375.5 127t130.5 365q0 142 -36 239.5t-112.5 156.5t-184 84.5t-259.5 25.5h-115v-394h170v-192 h-170v-412z" />
<glyph unicode="&#xd1;" horiz-adv-x="1447" d="M121 0v1446h248l686 -975v975h272v-1446h-254l-680 975v-975h-272zM332 1608q0 27 0.5 42t3.5 44.5t9 47.5t18.5 41.5t30 37t44.5 23t62 9.5q58 0 126 -19.5t121 -39.5t74 -20q47 0 47 79h160q0 -30 -1 -47.5t-5 -51.5t-15 -55.5t-28.5 -44.5t-48 -34.5t-70.5 -11.5 q-49 0 -123.5 22t-132.5 44t-69 22q-25 0 -36.5 -20.5t-11.5 -67.5h-155z" />
<glyph unicode="&#xd2;" horiz-adv-x="1593" d="M72 727q0 175 55 317.5t152 237t230 146t288 51.5q156 0 289 -51.5t230.5 -146t152.5 -237t55 -317.5q0 -173 -55.5 -315t-153 -236t-230.5 -145t-288 -51q-208 0 -371 87.5t-258.5 258.5t-95.5 401zM369 1939h313l229 -340h-209q-56 56 -167 169.5t-166 170.5zM375 723 q0 -236 108.5 -374t315.5 -138q208 0 318 138.5t110 373.5q0 237 -109.5 378.5t-318.5 141.5q-207 0 -315.5 -141.5t-108.5 -378.5z" />
<glyph unicode="&#xd3;" horiz-adv-x="1593" d="M72 727q0 175 55 317.5t152 237t230 146t288 51.5q156 0 289 -51.5t230.5 -146t152.5 -237t55 -317.5q0 -173 -55.5 -315t-153 -236t-230.5 -145t-288 -51q-208 0 -371 87.5t-258.5 258.5t-95.5 401zM375 723q0 -236 108.5 -374t315.5 -138q208 0 318 138.5t110 373.5 q0 237 -109.5 378.5t-318.5 141.5q-207 0 -315.5 -141.5t-108.5 -378.5zM719 1599l166 383h313l-311 -383h-168z" />
<glyph unicode="&#xd4;" horiz-adv-x="1593" d="M72 727q0 175 55 317.5t152 237t230 146t288 51.5q156 0 289 -51.5t230.5 -146t152.5 -237t55 -317.5q0 -173 -55.5 -315t-153 -236t-230.5 -145t-288 -51q-208 0 -371 87.5t-258.5 258.5t-95.5 401zM375 723q0 -236 108.5 -374t315.5 -138q208 0 318 138.5t110 373.5 q0 237 -109.5 378.5t-318.5 141.5q-207 0 -315.5 -141.5t-108.5 -378.5zM420 1599l264 383h199l264 -383h-195l-172 201l-172 -201h-188z" />
<glyph unicode="&#xd5;" horiz-adv-x="1593" d="M72 727q0 175 55 317.5t152 237t230 146t288 51.5q156 0 289 -51.5t230.5 -146t152.5 -237t55 -317.5q0 -173 -55.5 -315t-153 -236t-230.5 -145t-288 -51q-208 0 -371 87.5t-258.5 258.5t-95.5 401zM375 723q0 -236 108.5 -374t315.5 -138q208 0 318 138.5t110 373.5 q0 237 -109.5 378.5t-318.5 141.5q-207 0 -315.5 -141.5t-108.5 -378.5zM442 1608q0 27 0.5 42t3.5 44.5t9 47.5t18.5 41.5t30 37t44.5 23t62 9.5q58 0 126.5 -19.5t121.5 -39.5t74 -20q47 0 47 79h160q0 -30 -1 -47.5t-5 -51.5t-15 -55.5t-28.5 -44.5t-48 -34.5 t-70.5 -11.5q-49 0 -123.5 22t-133 44t-69.5 22q-25 0 -36 -20.5t-11 -67.5h-156z" />
<glyph unicode="&#xd6;" horiz-adv-x="1593" d="M72 727q0 175 55 317.5t152 237t230 146t288 51.5q156 0 289 -51.5t230.5 -146t152.5 -237t55 -317.5q0 -173 -55.5 -315t-153 -236t-230.5 -145t-288 -51q-208 0 -371 87.5t-258.5 258.5t-95.5 401zM375 723q0 -236 108.5 -374t315.5 -138q208 0 318 138.5t110 373.5 q0 237 -109.5 378.5t-318.5 141.5q-207 0 -315.5 -141.5t-108.5 -378.5zM465 1602v266h207v-266h-207zM889 1602v266h209v-266h-209z" />
<glyph unicode="&#xd7;" horiz-adv-x="1499" d="M322 279l282 280l-282 277l139 145l299 -276l299 276l141 -145l-285 -277q22 -22 126 -122.5t159 -155.5l-139 -146l-301 277l-301 -277z" />
<glyph unicode="&#xd8;" horiz-adv-x="1710" d="M72 727q0 175 55 317.5t152 237t230 146t288 51.5q156 0 289 -51.5t230.5 -146t152.5 -237t55 -317.5q0 -173 -55.5 -315t-153 -236t-230.5 -145t-288 -51q-208 0 -371 87.5t-258.5 258.5t-95.5 401zM365 -162l784 1811l94 -39l-788 -1815zM375 723q0 -236 108.5 -374 t315.5 -138q208 0 318 138.5t110 373.5q0 237 -109.5 378.5t-318.5 141.5q-207 0 -315.5 -141.5t-108.5 -378.5z" />
<glyph unicode="&#xd9;" horiz-adv-x="1388" d="M106 539v907h300v-893q0 -184 63.5 -264t224.5 -80t226 80t65 264v893h297v-907q0 -273 -147 -416t-441 -143t-441 143t-147 416zM242 1939h313l229 -340h-209q-56 56 -167 169.5t-166 170.5z" />
<glyph unicode="&#xda;" horiz-adv-x="1388" d="M106 539v907h300v-893q0 -184 63.5 -264t224.5 -80t226 80t65 264v893h297v-907q0 -273 -147 -416t-441 -143t-441 143t-147 416zM594 1599l166 383h313l-311 -383h-168z" />
<glyph unicode="&#xdb;" horiz-adv-x="1388" d="M106 539v907h300v-893q0 -184 63.5 -264t224.5 -80t226 80t65 264v893h297v-907q0 -273 -147 -416t-441 -143t-441 143t-147 416zM293 1599l264 383h199l264 -383h-195l-172 201l-172 -201h-188z" />
<glyph unicode="&#xdc;" horiz-adv-x="1388" d="M106 539v907h300v-893q0 -184 63.5 -264t224.5 -80t226 80t65 264v893h297v-907q0 -273 -147 -416t-441 -143t-441 143t-147 416zM338 1602v266h207v-266h-207zM762 1602v266h209v-266h-209z" />
<glyph unicode="&#xdd;" horiz-adv-x="1241" d="M-37 1446h309l353 -604l348 604h305l-502 -860v-586h-297v586zM631 1599l166 383h313l-311 -383h-168z" />
<glyph unicode="&#xde;" horiz-adv-x="1318" d="M182 14v1426h238v-242h268q124 0 226.5 -24.5t183.5 -75t126.5 -137t45.5 -201.5q0 -107 -44.5 -191.5t-122 -137.5t-177 -81t-213.5 -28h-293v-308h-238zM420 535h311q135 0 215 61.5t80 175.5q0 240 -317 240h-289v-477z" />
<glyph unicode="&#xdf;" horiz-adv-x="1257" d="M100 0v1018q0 219 125 340t353 121q91 0 172 -21.5t145 -62.5t101.5 -109.5t37.5 -155.5q0 -50 -18 -96.5t-42 -78.5t-65.5 -67.5t-70 -54.5t-74.5 -47q153 -78 190 -101q191 -115 232 -256q12 -42 12 -87q0 -167 -114.5 -254.5t-299.5 -87.5h-272l31 188h211 q77 0 119 42.5t42 115.5q0 45 -19.5 82.5t-59 68t-75.5 52t-93 51.5t-88 49q-88 52 -88 125q0 65 71 119q12 9 53 37.5t57.5 43t43 41.5t37 55t10.5 60q0 68 -50.5 106t-135.5 38q-61 0 -100.5 -18t-59 -56t-26.5 -82.5t-7 -113.5v-1004h-285z" />
<glyph unicode="&#xe0;" horiz-adv-x="1069" d="M68 285q0 50 8 91t27.5 73t42 56.5t61.5 44t75 33t94 26t107.5 21t124.5 19.5l76 13v49q0 53 -4 81.5t-19.5 54t-47 36t-85.5 12.5h-14q-113 0 -330 -74l-55 203q162 74 410 80h24q189 0 297.5 -88.5t108.5 -257.5v-758h-217l-29 115q-79 -67 -152 -101t-168 -34 q-151 0 -243 82.5t-92 222.5zM133 1565h313l230 -340h-209q-56 56 -167.5 169.5t-166.5 170.5zM322 295q0 -61 33.5 -97t97.5 -36q46 0 88.5 13t69 28t73.5 47v252l-76 -13q-41 -6 -66.5 -10.5t-59 -12.5t-54 -17t-43 -23.5t-35 -32t-20.5 -42.5t-8 -56z" />
<glyph unicode="&#xe1;" horiz-adv-x="1069" d="M68 285q0 50 8 91t27.5 73t42 56.5t61.5 44t75 33t94 26t107.5 21t124.5 19.5l76 13v49q0 53 -4 81.5t-19.5 54t-47 36t-85.5 12.5h-14q-113 0 -330 -74l-55 203q162 74 410 80h24q189 0 297.5 -88.5t108.5 -257.5v-758h-217l-29 115q-79 -67 -152 -101t-168 -34 q-151 0 -243 82.5t-92 222.5zM322 295q0 -61 33.5 -97t97.5 -36q46 0 88.5 13t69 28t73.5 47v252l-76 -13q-41 -6 -66.5 -10.5t-59 -12.5t-54 -17t-43 -23.5t-35 -32t-20.5 -42.5t-8 -56zM485 1225l166 383h314l-312 -383h-168z" />
<glyph unicode="&#xe2;" horiz-adv-x="1069" d="M68 285q0 50 8 91t27.5 73t42 56.5t61.5 44t75 33t94 26t107.5 21t124.5 19.5l76 13v49q0 53 -4 81.5t-19.5 54t-47 36t-85.5 12.5h-14q-113 0 -330 -74l-55 203q162 74 410 80h24q189 0 297.5 -88.5t108.5 -257.5v-758h-217l-29 115q-79 -67 -152 -101t-168 -34 q-151 0 -243 82.5t-92 222.5zM186 1225l265 383h198l264 -383h-194l-172 200l-172 -200h-189zM322 295q0 -61 33.5 -97t97.5 -36q46 0 88.5 13t69 28t73.5 47v252l-76 -13q-41 -6 -66.5 -10.5t-59 -12.5t-54 -17t-43 -23.5t-35 -32t-20.5 -42.5t-8 -56z" />
<glyph unicode="&#xe3;" horiz-adv-x="1069" d="M68 285q0 50 8 91t27.5 73t42 56.5t61.5 44t75 33t94 26t107.5 21t124.5 19.5l76 13v49q0 53 -4 81.5t-19.5 54t-47 36t-85.5 12.5h-14q-113 0 -330 -74l-55 203q162 74 410 80h24q189 0 297.5 -88.5t108.5 -257.5v-758h-217l-29 115q-79 -67 -152 -101t-168 -34 q-151 0 -243 82.5t-92 222.5zM209 1227q0 27 0.5 42t3.5 44.5t9 48t18.5 42t30 37t44.5 23t62 9.5q58 0 126 -20t121 -40t74 -20q47 0 47 80h160q0 -25 -0.5 -40t-3.5 -44t-9 -48t-18.5 -42.5t-29.5 -37.5t-44.5 -24t-62.5 -10q-49 0 -123.5 22t-132.5 44t-69 22 q-25 0 -36 -20.5t-11 -67.5h-156zM322 295q0 -61 33.5 -97t97.5 -36q46 0 88.5 13t69 28t73.5 47v252l-76 -13q-41 -6 -66.5 -10.5t-59 -12.5t-54 -17t-43 -23.5t-35 -32t-20.5 -42.5t-8 -56z" />
<glyph unicode="&#xe4;" horiz-adv-x="1069" d="M68 285q0 50 8 91t27.5 73t42 56.5t61.5 44t75 33t94 26t107.5 21t124.5 19.5l76 13v49q0 53 -4 81.5t-19.5 54t-47 36t-85.5 12.5h-14q-113 0 -330 -74l-55 203q162 74 410 80h24q189 0 297.5 -88.5t108.5 -257.5v-758h-217l-29 115q-79 -67 -152 -101t-168 -34 q-151 0 -243 82.5t-92 222.5zM231 1227v266h207v-266h-207zM322 295q0 -61 33.5 -97t97.5 -36q46 0 88.5 13t69 28t73.5 47v252l-76 -13q-41 -6 -66.5 -10.5t-59 -12.5t-54 -17t-43 -23.5t-35 -32t-20.5 -42.5t-8 -56zM655 1227v266h209v-266h-209z" />
<glyph unicode="&#xe5;" horiz-adv-x="1069" d="M68 285q0 50 8 91t27.5 73t42 56.5t61.5 44t75 33t94 26t107.5 21t124.5 19.5l76 13v49q0 53 -4 81.5t-19.5 54t-47 36t-85.5 12.5h-14q-113 0 -330 -74l-55 203q162 74 410 80h24q189 0 297.5 -88.5t108.5 -257.5v-758h-217l-29 115q-79 -67 -152 -101t-168 -34 q-151 0 -243 82.5t-92 222.5zM322 295q0 -61 33.5 -97t97.5 -36q46 0 88.5 13t69 28t73.5 47v252l-76 -13q-41 -6 -66.5 -10.5t-59 -12.5t-54 -17t-43 -23.5t-35 -32t-20.5 -42.5t-8 -56zM340 1411q0 85 58.5 145t166.5 60t168 -60.5t60 -144.5t-61 -147.5t-167 -63.5 t-165.5 63t-59.5 148zM459 1411q0 -45 27.5 -78t78.5 -33t79 33t28 78t-28 78t-79 33q-50 0 -78 -33t-28 -78z" />
<glyph unicode="&#xe6;" horiz-adv-x="1650" d="M61 311q0 56 13 97.5t49 70.5t69.5 47.5t106 34t124 23t155.5 20.5l90 10v97q0 99 -38.5 144.5t-142.5 49.5h-12q-21 0 -46 -3t-50.5 -8.5t-48 -11t-48.5 -14t-40.5 -13.5t-36 -12.5t-25.5 -8.5l-53 190q82 38 166 57.5t207 22.5h24q110 0 193.5 -44.5t113.5 -125.5 q53 68 142 117t188 53h29q106 0 186.5 -41.5t127.5 -114.5t70 -164t23 -198v-2q0 -14 -1 -26t-1 -26v-2l-653 -49q4 -145 75 -220t200 -77h10q89 0 156.5 20.5t103.5 49.5l80 -174q-70 -50 -154 -75t-211 -25q-261 0 -391 167q-156 -167 -410 -167q-154 0 -247 98t-93 233z M317 295q3 -61 36 -97t96 -36q130 0 262 129l-4 11q-4 12 -9.5 30t-10.5 38.5t-9 43.5t-4 41l-96 -15q-147 -22 -191 -41q-70 -30 -70 -96v-8zM942 633l397 39q2 14 2 37t-3 44.5t-12.5 48.5t-25.5 47t-45.5 34t-68.5 14q-3 0 -11 -1t-12 -1q-202 -18 -221 -262z" />
<glyph unicode="&#xe7;" horiz-adv-x="944" d="M63 555q0 108 28.5 199t78 155t116.5 108.5t142.5 65.5t157.5 21h8q104 -1 175 -24.5t138 -71.5l-45 -189q-38 27 -107.5 51.5t-133.5 24.5q-127 0 -206 -86.5t-79 -263.5q0 -185 77 -273t214 -88q128 0 239 80l54 -190q-73 -49 -144 -71.5t-166 -22.5h-4 q-118 0 -216 35.5t-171.5 105.5t-114.5 180.5t-41 253.5zM369 -373l127 367h163l-61 -367h-229z" />
<glyph unicode="&#xe8;" horiz-adv-x="1107" d="M63 541q0 158 60.5 284.5t180.5 202.5t280 76q118 0 210 -44t148.5 -120t85.5 -172t29 -205v-4q0 -13 -1 -39.5t-1 -40.5v-4h-713q4 -144 81.5 -217.5t217.5 -73.5q91 0 171.5 27.5t133.5 67.5l78 -175q-158 -124 -393 -124q-273 0 -420.5 150t-147.5 411zM172 1565h313 l230 -340h-209q-55 56 -167 169.5t-167 170.5zM344 627h455v10q0 128 -54.5 193t-156.5 65q-38 0 -75.5 -12.5t-75 -41t-63 -83.5t-30.5 -131z" />
<glyph unicode="&#xe9;" horiz-adv-x="1107" d="M63 541q0 158 60.5 284.5t180.5 202.5t280 76q118 0 210 -44t148.5 -120t85.5 -172t29 -205v-4q0 -13 -1 -39.5t-1 -40.5v-4h-713q4 -144 81.5 -217.5t217.5 -73.5q91 0 171.5 27.5t133.5 67.5l78 -175q-158 -124 -393 -124q-273 0 -420.5 150t-147.5 411zM315 1176 l166 383h314l-312 -383h-168zM344 627h455v10q0 128 -54.5 193t-156.5 65q-38 0 -75.5 -12.5t-75 -41t-63 -83.5t-30.5 -131z" />
<glyph unicode="&#xea;" horiz-adv-x="1107" d="M63 541q0 158 60.5 284.5t180.5 202.5t280 76q118 0 210 -44t148.5 -120t85.5 -172t29 -205v-4q0 -13 -1 -39.5t-1 -40.5v-4h-713q4 -144 81.5 -217.5t217.5 -73.5q91 0 171.5 27.5t133.5 67.5l78 -175q-158 -124 -393 -124q-273 0 -420.5 150t-147.5 411zM193 1133 l264 383h198l265 -383h-195l-172 200l-172 -200h-188zM344 627h455v10q0 128 -54.5 193t-156.5 65q-38 0 -75.5 -12.5t-75 -41t-63 -83.5t-30.5 -131z" />
<glyph unicode="&#xeb;" horiz-adv-x="1107" d="M63 541q0 158 60.5 284.5t180.5 202.5t280 76q118 0 210 -44t148.5 -120t85.5 -172t29 -205v-4q0 -13 -1 -39.5t-1 -40.5v-4h-713q4 -144 81.5 -217.5t217.5 -73.5q91 0 171.5 27.5t133.5 67.5l78 -175q-158 -124 -393 -124q-273 0 -420.5 150t-147.5 411zM240 1231v266 h206v-266h-206zM344 627h455v10q0 128 -54.5 193t-156.5 65q-38 0 -75.5 -12.5t-75 -41t-63 -83.5t-30.5 -131zM664 1231v266h208v-266h-208z" />
<glyph unicode="&#xec;" horiz-adv-x="585" d="M-88 1565h313l230 -340h-209q-55 56 -167 169.5t-167 170.5zM127 0v1063h283v-1063h-283z" />
<glyph unicode="&#xed;" horiz-adv-x="585" d="M55 1176l166 383h314l-312 -383h-168zM127 0v1063h283v-1063h-283z" />
<glyph unicode="&#xee;" horiz-adv-x="585" d="M-70 1133l265 383h198l264 -383h-194l-172 200l-172 -200h-189zM127 0v1063h283v-1063h-283z" />
<glyph unicode="&#xef;" horiz-adv-x="585" d="M-23 1231v266h207v-266h-207zM127 0v1063h283v-1063h-283zM401 1231v266h209v-266h-209z" />
<glyph unicode="&#xf0;" horiz-adv-x="1214" d="M80 461q0 206 132.5 330t354.5 124q51 0 103 -10l28 -6l-174 195l-235 -97l-66 183l170 69l-192 230h317l109 -133l256 104l67 -180l-194 -80q201 -223 295 -373q102 -165 104 -348h2v-2q0 -224 -145.5 -354.5t-390.5 -130.5q-239 0 -390 131t-151 348zM338 475 q0 -126 79.5 -201t211.5 -75q131 0 205.5 72.5t74.5 199.5q0 131 -76 207t-210 76q-136 0 -210.5 -74t-74.5 -205z" />
<glyph unicode="&#xf1;" horiz-adv-x="1196" d="M100 0v1063h238l22 -141q69 81 166.5 132t210.5 50q186 -3 277.5 -126.5t91.5 -330.5v-647h-285v621q0 44 -1.5 72t-6.5 63.5t-17 57.5t-30.5 42t-49 29.5t-71.5 9.5q-75 0 -150 -51t-110 -119v-725h-285zM223 1227q0 27 0.5 42t3.5 44.5t9 48t18.5 42t30 37t44.5 23 t62 9.5q58 0 126.5 -20t121.5 -40t74 -20q47 0 47 80h160q0 -25 -0.5 -40t-3.5 -44t-9 -48t-18.5 -42.5t-29.5 -37.5t-44.5 -24t-62.5 -10q-49 0 -123.5 22t-133 44t-69.5 22q-25 0 -36 -20.5t-11 -67.5h-156z" />
<glyph unicode="&#xf2;" horiz-adv-x="1175" d="M63 539q0 167 58 293t178 199t289 73q252 0 388 -154.5t136 -410.5q0 -251 -136 -405t-388 -154t-388.5 154t-136.5 405zM317 1516h314l229 -340h-209q-55 56 -166.5 169.5t-167.5 170.5zM336 539q0 -170 68 -261.5t184 -91.5q117 0 185.5 91.5t68.5 261.5q0 174 -69 265 t-185 91t-184 -91t-68 -265z" />
<glyph unicode="&#xf3;" horiz-adv-x="1175" d="M63 539q0 167 58 293t178 199t289 73q252 0 388 -154.5t136 -410.5q0 -251 -136 -405t-388 -154t-388.5 154t-136.5 405zM336 539q0 -170 68 -261.5t184 -91.5q117 0 185.5 91.5t68.5 261.5q0 174 -69 265t-185 91t-184 -91t-68 -265zM348 1176l166 383h313l-311 -383 h-168z" />
<glyph unicode="&#xf4;" horiz-adv-x="1175" d="M63 539q0 167 58 293t178 199t289 73q252 0 388 -154.5t136 -410.5q0 -251 -136 -405t-388 -154t-388.5 154t-136.5 405zM225 1133l264 383h199l264 -383h-194l-172 200l-172 -200h-189zM336 539q0 -170 68 -261.5t184 -91.5q117 0 185.5 91.5t68.5 261.5q0 174 -69 265 t-185 91t-184 -91t-68 -265z" />
<glyph unicode="&#xf5;" horiz-adv-x="1175" d="M63 539q0 167 58 293t178 199t289 73q252 0 388 -154.5t136 -410.5q0 -251 -136 -405t-388 -154t-388.5 154t-136.5 405zM225 1227q0 27 0.5 42t3.5 44.5t9 48t18.5 42t30 37t44.5 23t62 9.5q58 0 126.5 -20t121.5 -40t74 -20q47 0 47 80h160q0 -25 -0.5 -40t-3.5 -44 t-9 -48t-18.5 -42.5t-29.5 -37.5t-44.5 -24t-62.5 -10q-49 0 -123.5 22t-133 44t-69.5 22q-25 0 -36 -20.5t-11 -67.5h-156zM336 539q0 -170 68 -261.5t184 -91.5q117 0 185.5 91.5t68.5 261.5q0 174 -69 265t-185 91t-184 -91t-68 -265z" />
<glyph unicode="&#xf6;" horiz-adv-x="1175" d="M63 539q0 167 58 293t178 199t289 73q252 0 388 -154.5t136 -410.5q0 -251 -136 -405t-388 -154t-388.5 154t-136.5 405zM272 1231v266h207v-266h-207zM336 539q0 -170 68 -261.5t184 -91.5q117 0 185.5 91.5t68.5 261.5q0 174 -69 265t-185 91t-184 -91t-68 -265z M696 1231v266h209v-266h-209z" />
<glyph unicode="&#xf7;" horiz-adv-x="1509" d="M199 461v198h1101v-198h-1101zM602 20v271h303v-271h-303zM602 817v270h303v-270h-303z" />
<glyph unicode="&#xf8;" horiz-adv-x="1183" d="M63 539q0 167 58 293t178 199t289 73q252 0 388 -154.5t136 -410.5q0 -251 -136 -405t-388 -154t-388.5 154t-136.5 405zM246 -156l628 1434l68 -35l-637 -1431zM336 539q0 -170 68 -261.5t184 -91.5q117 0 185.5 91.5t68.5 261.5q0 174 -69 265t-185 91t-184 -91 t-68 -265z" />
<glyph unicode="&#xf9;" horiz-adv-x="1153" d="M92 385v678h283v-674q0 -108 51 -155.5t149 -47.5q99 0 151 47.5t52 155.5v674h285v-678q0 -199 -131.5 -302t-356.5 -103q-224 0 -353.5 101.5t-129.5 303.5zM305 1516h313l230 -340h-209q-55 56 -166.5 169.5t-167.5 170.5z" />
<glyph unicode="&#xfa;" horiz-adv-x="1153" d="M92 385v678h283v-674q0 -108 51 -155.5t149 -47.5q99 0 151 47.5t52 155.5v674h285v-678q0 -199 -131.5 -302t-356.5 -103q-224 0 -353.5 101.5t-129.5 303.5zM338 1176l166 383h313l-311 -383h-168z" />
<glyph unicode="&#xfb;" horiz-adv-x="1153" d="M92 385v678h283v-674q0 -108 51 -155.5t149 -47.5q99 0 151 47.5t52 155.5v674h285v-678q0 -199 -131.5 -302t-356.5 -103q-224 0 -353.5 101.5t-129.5 303.5zM213 1133l264 383h199l264 -383h-195l-172 200l-172 -200h-188z" />
<glyph unicode="&#xfc;" horiz-adv-x="1153" d="M92 385v678h283v-674q0 -108 51 -155.5t149 -47.5q99 0 151 47.5t52 155.5v674h285v-678q0 -199 -131.5 -302t-356.5 -103q-224 0 -353.5 101.5t-129.5 303.5zM260 1231v266h207v-266h-207zM684 1231v266h209v-266h-209z" />
<glyph unicode="&#xfd;" horiz-adv-x="1077" d="M-16 1063h284l281 -709l242 709h292l-436 -1135q-40 -104 -82.5 -169.5t-98 -103t-118.5 -51.5t-153 -14h-138l-26 203h73h27q75 0 105.5 3.5t68 26.5t59 71.5t48.5 140.5zM301 1176l166 383h313l-311 -383h-168z" />
<glyph unicode="&#xfe;" horiz-adv-x="1296" d="M160 1464v29h252v-553l14 14q123 101 295 101q124 0 220.5 -43t155.5 -118.5t89.5 -173.5t30.5 -212q0 -111 -28.5 -205t-85 -166t-149.5 -112.5t-213 -40.5q-188 0 -313 104l-16 14v-524h-244v1624q0 42 -4 128.5t-4 133.5zM410 524q0 -154 71 -240.5t221 -86.5 q135 0 200 89.5t65 237.5t-65 238t-200 90q-149 0 -220.5 -87t-71.5 -241z" />
<glyph unicode="&#xff;" horiz-adv-x="1077" d="M-16 1063h284l281 -709l242 709h292l-436 -1135q-40 -104 -82.5 -169.5t-98 -103t-118.5 -51.5t-153 -14h-138l-26 203h73h27q75 0 105.5 3.5t68 26.5t59 71.5t48.5 140.5zM223 1231v266h207v-266h-207zM647 1231v266h209v-266h-209z" />
<glyph unicode="&#x152;" horiz-adv-x="2297" d="M106 727q0 160 55 300t150.5 239t228.5 156t285 57q194 0 357 -105v76h977l-19 -221h-676v-361h650v-217h-650v-426h725l-18 -221h-989v82q-154 -104 -357 -104q-202 0 -367 96.5t-258.5 267t-93.5 381.5zM391 723q0 -80 17.5 -155t53 -140.5t86.5 -114.5t122 -77.5 t155 -28.5q230 0 357 127v784q-128 135 -357 135q-104 0 -189 -45.5t-137 -121t-80 -169t-28 -194.5z" />
<glyph unicode="&#x153;" horiz-adv-x="1847" d="M68 535q0 120 32 222t94.5 180.5t164.5 122.5t233 44q127 0 224 -55t159 -144q53 93 148.5 146t226.5 53q94 0 169.5 -29t125.5 -79t83 -119.5t47.5 -147.5t14.5 -166l-2 -88h-686q9 -291 289 -291q161 0 288 95l78 -175q-78 -61 -163 -92.5t-210 -31.5q-298 0 -411 186 q-52 -83 -151.5 -134.5t-229.5 -51.5q-131 0 -233 44.5t-164.5 121.5t-94.5 175.5t-32 213.5zM340 535q0 -170 70 -259.5t182 -89.5q114 0 184 87.5t70 261.5q0 179 -70 269.5t-184 90.5q-113 0 -182.5 -92.5t-69.5 -267.5zM1104 631h428v8q0 256 -203 256q-38 0 -72.5 -12 t-68.5 -39.5t-56.5 -82t-27.5 -130.5z" />
<glyph unicode="&#x178;" horiz-adv-x="1241" d="M-37 1446h309l353 -604l348 604h305l-502 -860v-586h-297v586zM377 1602v266h207v-266h-207zM801 1602v266h209v-266h-209z" />
<glyph unicode="&#x2c6;" horiz-adv-x="741" d="M25 1133l264 383h198l265 -383h-195l-172 200l-172 -200h-188z" />
<glyph unicode="&#x2dc;" horiz-adv-x="739" d="M23 1208q0 27 0.5 42t3.5 44.5t9 47.5t18 42t29.5 37.5t44.5 23t62 9.5q58 0 126.5 -20t121.5 -40t74 -20q47 0 47 80h160q0 -25 -0.5 -40t-3.5 -44t-9 -48t-18.5 -42.5t-29.5 -37.5t-44.5 -24t-62.5 -10q-49 0 -123.5 22t-133 44t-69.5 22q-25 0 -36 -20.5t-11 -67.5 h-155z" />
<glyph unicode="&#x2000;" horiz-adv-x="991" />
<glyph unicode="&#x2001;" horiz-adv-x="1982" />
<glyph unicode="&#x2002;" horiz-adv-x="991" />
<glyph unicode="&#x2003;" horiz-adv-x="1982" />
<glyph unicode="&#x2004;" horiz-adv-x="660" />
<glyph unicode="&#x2005;" horiz-adv-x="495" />
<glyph unicode="&#x2006;" horiz-adv-x="330" />
<glyph unicode="&#x2007;" horiz-adv-x="330" />
<glyph unicode="&#x2008;" horiz-adv-x="247" />
<glyph unicode="&#x2009;" horiz-adv-x="396" />
<glyph unicode="&#x200a;" horiz-adv-x="110" />
<glyph unicode="&#x2010;" horiz-adv-x="696" d="M70 432v195h559v-195h-559z" />
<glyph unicode="&#x2011;" horiz-adv-x="696" d="M70 432v195h559v-195h-559z" />
<glyph unicode="&#x2012;" horiz-adv-x="696" d="M70 432v195h559v-195h-559z" />
<glyph unicode="&#x2013;" horiz-adv-x="1218" d="M70 438v199h1081v-199h-1081z" />
<glyph unicode="&#x2014;" horiz-adv-x="1992" d="M-6 438v199h1997v-199h-1997z" />
<glyph unicode="&#x2018;" horiz-adv-x="419" d="M35 1483h237l113 -500h-184z" />
<glyph unicode="&#x2019;" horiz-adv-x="419" d="M37 983l113 500h237l-168 -500h-182z" />
<glyph unicode="&#x201a;" horiz-adv-x="573" d="M113 -289l112 500h240l-166 -500h-186z" />
<glyph unicode="&#x201c;" horiz-adv-x="712" d="M35 1483h239l103 -500h-174zM342 1483h225l113 -500h-186z" />
<glyph unicode="&#x201d;" horiz-adv-x="1003" d="M190 983l113 500h227l-151 -500h-189zM496 983l102 500h238l-168 -500h-172z" />
<glyph unicode="&#x201e;" horiz-adv-x="1042" d="M164 -289l112 500h248l-176 -500h-184zM518 -289l123 500h238l-166 -500h-195z" />
<glyph unicode="&#x2022;" horiz-adv-x="1036" d="M145 674q0 148 107.5 247t271.5 99q163 0 268 -95t105 -243q0 -150 -107 -248t-272 -98q-164 0 -268.5 95t-104.5 243z" />
<glyph unicode="&#x2026;" horiz-adv-x="1585" d="M147 -61v270h267v-270h-267zM651 -61v270h283v-270h-283zM1171 -61v270h267v-270h-267z" />
<glyph unicode="&#x202f;" horiz-adv-x="396" />
<glyph unicode="&#x2039;" horiz-adv-x="571" d="M33 547l282 377h224l-273 -377l264 -377h-221z" />
<glyph unicode="&#x203a;" horiz-adv-x="571" d="M33 170l270 377l-262 377h219l281 -377l-287 -377h-221z" />
<glyph unicode="&#x205f;" horiz-adv-x="495" />
<glyph unicode="&#x20ac;" horiz-adv-x="1183" d="M68 760l28 196h117q23 105 67.5 193t112 158.5t167 110.5t220.5 40q208 0 336 -137l-49 -281l-43 66q-91 147 -250 147q-70 0 -124.5 -23.5t-92 -66.5t-62 -92t-42.5 -113h553l-27 -198h-553v-45v-15v-10h549q0 -1 -1 -3t-1 -3l-27 -190h-497q14 -71 36 -124t58 -96 t92 -65.5t131 -22.5q79 0 143 31t135 90l50 43v-260q-154 -108 -344 -108q-125 0 -223 40t-161.5 112t-102 161.5t-56.5 198.5h-137l28 196h90v70h-120z" />
<glyph unicode="&#x2122;" horiz-adv-x="1792" d="M61 1300v160h658v-160h-232v-614h-184v614h-242zM766 686v774h233l195 -504l205 504h215v-774h-176v485l-197 -485h-106l-187 477v-477h-182z" />
<glyph unicode="&#x25fc;" horiz-adv-x="1064" d="M0 0v1065h1065v-1065h-1065z" />
<glyph unicode="&#xfb01;" horiz-adv-x="1198" d="M6 895v168h172v33q0 67 3 114.5t12.5 98t27 84t47 65t72 49.5t102.5 28.5t138 10.5h63l23 -211h-62q-90 0 -116.5 -39t-26.5 -145v-88h620v-1063h-282v895h-338v-895h-283v895h-172zM799 1245v234h284v-234h-284z" />
<glyph unicode="&#xfb02;" horiz-adv-x="1419" d="M6 895v168h172v55q0 220 101 325t337 105q101 0 238 -13t224 -25l87 -13v-1081q0 -67 5 -103.5t22 -65t50.5 -38.5t90.5 -10q23 0 38 1t19 2l3 1l12 -203q-58 -12 -150 -12q-94 0 -162 23.5t-108 62t-63.5 100.5t-31 127t-7.5 154v868q-106 18 -215 18 q-124 0 -165.5 -42.5t-41.5 -147.5v-88h225v-168h-225v-895h-283v895h-172z" />
</font>
</defs>
</svg>
