<?xml version="1.0" standalone="no"?>
<!DOCTYPE svg PUBLIC "-//W3C//DTD SVG 1.1//EN" "http://www.w3.org/Graphics/SVG/1.1/DTD/svg11.dtd" >
<svg xmlns="http://www.w3.org/2000/svg">
<metadata></metadata>
<defs>
<font id="muliitalic" horiz-adv-x="1190" >
<font-face units-per-em="2048" ascent="1638" descent="-410" />
<missing-glyph horiz-adv-x="599" />
<glyph horiz-adv-x="2048" />
<glyph horiz-adv-x="2048" />
<glyph unicode="&#xd;" horiz-adv-x="0" />
<glyph unicode=" "  horiz-adv-x="599" />
<glyph unicode="&#x09;" horiz-adv-x="599" />
<glyph unicode="&#xa0;" horiz-adv-x="599" />
<glyph unicode="!" horiz-adv-x="737" d="M258 -23l16 206h214l-16 -206h-214zM340 373l45 1078h195l-125 -1078h-115z" />
<glyph unicode="&#x22;" horiz-adv-x="720" d="M228 989v462h183l-52 -462h-131zM517 989v462h184l-54 -462h-130z" />
<glyph unicode="#" horiz-adv-x="1242" d="M80 485l21 126h265q17 70 35 137.5t37 137.5h-261l22 124h270l112 410h146l-110 -410h261l109 410h146l-111 -410h241l-23 -124h-250l-73 -275h252l-24 -126h-260l-116 -425h-145l113 425h-261l-115 -425h-146l117 425h-252zM508 611h264l73 275h-261z" />
<glyph unicode="$" d="M209 89l60 134q60 -43 130.5 -68t141.5 -28l44 521q-78 36 -147.5 71.5t-120 80t-77.5 104t-21 143.5q7 79 45.5 147.5t98 120.5t133.5 84t151 38l7 138h124l-8 -136q100 -2 186 -30.5t145 -82.5l-59 -128q-53 51 -125 74.5t-157 26.5l-43 -529q101 -41 177 -80 t126 -85.5t72.5 -105t15.5 -138.5q-6 -83 -45.5 -149t-101 -113t-140.5 -75t-166 -35l-10 -161h-123l9 156q-91 2 -171 26.5t-151 78.5zM409 1059q-4 -51 8.5 -88.5t38 -65.5t61.5 -49t79 -38l40 475q-48 -6 -87.5 -26t-69.5 -50.5t-48 -71t-22 -86.5zM664 131q51 7 97.5 25 t82 46.5t58.5 67.5t27 88q4 47 -11 83t-45.5 65t-73 53t-93.5 46z" />
<glyph unicode="%" horiz-adv-x="1985" d="M251 1064q7 81 37.5 150.5t81 121.5t118.5 81.5t151 29.5q84 0 147.5 -28.5t104.5 -79t58.5 -120t11.5 -151.5q-7 -80 -37.5 -149.5t-81 -121t-118.5 -81.5t-150 -30q-84 0 -147.5 29t-104.5 80t-59 120t-12 149zM395 1065q-4 -55 5 -103.5t32.5 -84.5t61.5 -57t92 -21 t95.5 22.5t70.5 60t45.5 86t20.5 101.5q4 55 -4.5 103.5t-32 84.5t-61 57t-90.5 21q-55 0 -97 -22.5t-71.5 -60t-46 -86.5t-20.5 -101zM439 -5l1018 1441h155l-1019 -1441h-154zM1124 351q7 81 37.5 151t81 121.5t118.5 81.5t151 30q84 0 147.5 -28.5t104.5 -79t58.5 -120 t11.5 -151.5q-7 -80 -37.5 -149.5t-81 -121.5t-119 -82t-150.5 -30q-83 0 -146 29t-104 80t-59.5 120t-12.5 149zM1268 350q-4 -54 4.5 -102t32.5 -84t61.5 -57t91.5 -21t96 22.5t70.5 60.5t44.5 86.5t21 101.5q4 55 -4.5 103t-31.5 84t-60 57t-91 21q-56 0 -98 -23t-71 -61 t-45.5 -87t-20.5 -101z" />
<glyph unicode="&#x26;" horiz-adv-x="1647" d="M147 402q7 84 44.5 150t95 120t128.5 98t146 82l-13 15q-31 33 -60.5 67t-52.5 71.5t-35 81t-8 95.5q6 72 39 126.5t85 91t119 55t142 18.5q70 0 136.5 -17t116 -52.5t78 -89t22.5 -126.5q-5 -60 -34.5 -112.5t-75.5 -98t-104.5 -84.5t-121.5 -71l378 -413q38 52 71 116 t58.5 132.5t42 139.5t21.5 138q3 38 1.5 60t-1.5 37h173q-1 -94 -19 -193t-51.5 -195t-81 -185t-107.5 -164q41 -46 77 -79.5t75 -58t85.5 -41.5t108.5 -30l-140 -98q-46 7 -83.5 22.5t-72.5 40t-70 58t-78 77.5q-48 -44 -104.5 -83t-121 -68t-138.5 -45.5t-158 -16.5 q-117 0 -214 29t-166.5 84t-104.5 134.5t-27 181.5zM327 406q-5 -63 18 -116t68 -91.5t110 -60.5t145 -22q68 0 126 13.5t108 37t94 55.5t85 69q-2 1 -20.5 21t-49 53t-69 74t-77.5 84l-212 227q-59 -29 -115.5 -62t-102 -74t-74.5 -92.5t-34 -115.5zM565 1178 q-3 -38 5.5 -72t26.5 -65.5t43.5 -61.5t57.5 -61q47 24 92.5 52t81.5 60t59.5 68.5t26.5 79.5t-12 74t-41.5 50.5t-60.5 28.5t-69 9q-41 0 -77.5 -10t-65 -30.5t-46.5 -51t-21 -70.5z" />
<glyph unicode="'" horiz-adv-x="554" d="M290 989v462h184l-54 -462h-130z" />
<glyph unicode="(" horiz-adv-x="628" d="M199 587q9 120 38 232.5t73.5 220t103.5 210t130 201.5h148q-142 -201 -227 -417t-103 -444q-8 -105 2 -215.5t35.5 -220t66 -214.5t92.5 -199h-146q-51 89 -94 189t-72.5 208t-42.5 221t-4 228z" />
<glyph unicode=")" horiz-adv-x="628" d="M36 -259q64 91 119.5 192.5t98.5 210t71 224.5t38 236q8 100 -1 208t-34 217t-65.5 216t-95.5 206h147q51 -92 94.5 -193.5t72.5 -210t41.5 -221.5t3.5 -228q-9 -121 -38 -233.5t-73.5 -219t-102.5 -207.5t-127 -197h-149z" />
<glyph unicode="*" horiz-adv-x="1065" d="M264 1136l32 135l274 -123q-4 75 -8.5 151.5t-8.5 151.5h149l-31 -298l245 121l54 -125l-270 -88l181 -251l-131 -73l-137 266l-174 -258l-118 75l210 238z" />
<glyph unicode="+" horiz-adv-x="1458" d="M238 485l9 139h448l36 423h150l-35 -423h448l-10 -139h-448l-36 -423h-151l35 423h-446z" />
<glyph unicode="," horiz-adv-x="540" d="M58 -256l143 463h187l-199 -463h-131z" />
<glyph unicode="-" horiz-adv-x="728" d="M118 489l10 137h571l-10 -137h-571z" />
<glyph unicode="." horiz-adv-x="540" d="M158 -11l17 210h217l-17 -210h-217z" />
<glyph unicode="/" horiz-adv-x="717" d="M-64 -215l768 1666h167l-772 -1666h-163z" />
<glyph unicode="0" d="M145 715q13 171 56.5 308t115.5 232.5t170.5 146.5t223.5 51q142 0 234 -56.5t143 -157.5t65 -240.5t1 -304.5q-13 -162 -56.5 -294.5t-115.5 -226t-171.5 -145t-225.5 -51.5q-133 0 -223.5 54.5t-142.5 152.5t-69.5 233.5t-4.5 297.5zM317.5 585q-0.5 -72 7.5 -139.5 t27 -127t52 -104t82 -70t118 -25.5q82 0 146 42.5t109 118.5t73 181.5t38 231.5q5 68 6.5 140t-6 141t-25.5 130.5t-50.5 107.5t-81 73t-117.5 27q-83 0 -147.5 -43t-111 -120.5t-75 -185t-38.5 -236.5q-6 -70 -6.5 -142z" />
<glyph unicode="1" d="M333 0l11 143h219l87 1102q-70 -38 -140 -70t-149 -62l12 156q79 27 153 63.5t144 78.5l167 27l-102 -1295h217l-11 -143h-608z" />
<glyph unicode="2" d="M99 0l11 147q75 67 165 144t180.5 158.5t176 165.5t153 164.5t109.5 154.5t47 137q4 52 -12.5 95.5t-51.5 74.5t-86 48.5t-115 17.5q-58 0 -112 -16t-100 -45.5t-84 -72t-65 -95.5l-90 97q30 64 77 114.5t109 86t134.5 54t152.5 18.5q97 0 177 -26t136 -74t84.5 -116.5 t21.5 -153.5q-7 -90 -59 -183t-134 -188t-188 -192t-222 -196q-50 -43 -98 -84.5t-100 -89.5h730l-11 -145h-936z" />
<glyph unicode="3" d="M126 223l91 101q15 -50 45 -88t72 -64t94 -39.5t110 -13.5q72 0 136 19t113 54t79.5 86t35.5 116q6 75 -18 128t-74.5 86.5t-125.5 48.5t-169 15q-17 0 -38.5 -0.5t-38.5 -1.5l10 144q14 -1 31 -1h31q88 0 160 13.5t123.5 45.5t82 84t36.5 129q4 57 -13.5 98.5t-53 68.5 t-86.5 40.5t-112 13.5q-106 0 -192.5 -44t-146.5 -134l-91 89q26 54 71.5 97t104.5 73t128 46t143 16q88 0 169.5 -23.5t142 -69.5t94 -114t26.5 -156q-5 -66 -30.5 -120.5t-67 -97.5t-96.5 -73.5t-122 -48.5l10 -2q69 -14 125 -44t94.5 -75t57.5 -103.5t13 -130.5 q-7 -96 -55.5 -173t-126 -130.5t-175.5 -82t-205 -28.5q-78 0 -145.5 15.5t-119 46.5t-85 77t-42.5 107z" />
<glyph unicode="4" horiz-adv-x="1189" d="M53 351l10 124l739 945h208l-74 -937h214l-10 -132h-214l-28 -351h-172l28 351h-701zM234 483h530l64 809l-99 -146z" />
<glyph unicode="5" d="M161 173l90 116q53 -87 132 -128.5t173 -41.5q83 0 149.5 26.5t114 72t75 106t32.5 128.5q5 64 -10 119.5t-49.5 97t-88.5 65.5t-126 24q-70 0 -128 -26t-94 -74l-176 -6l61 773h791l-12 -145h-628l-49 -441q60 33 122 49.5t131 16.5q109 0 193 -34.5t140 -95.5 t81.5 -144.5t18.5 -181.5q-8 -100 -51 -186t-115 -149.5t-171 -100t-220 -36.5q-60 0 -117.5 11.5t-107.5 35.5t-91 61t-70 88z" />
<glyph unicode="6" d="M145 678q13 159 61.5 300t130.5 246.5t195 167t256 61.5q109 0 190.5 -35.5t123.5 -104.5l-64 -112q-45 54 -110.5 82.5t-149.5 28.5q-69 0 -127.5 -23t-107 -63.5t-86 -96.5t-64 -121t-42.5 -137.5t-22 -146.5q31 49 72 85t91 59.5t107 34.5t118 11q103 0 184.5 -32 t135.5 -92t79.5 -145t17.5 -191q-8 -102 -49.5 -189t-109.5 -151t-161 -100.5t-204 -36.5q-131 0 -224.5 51t-151 143.5t-79.5 221.5t-10 285zM329 501q-6 -75 9 -144t51 -122t94.5 -84.5t139.5 -31.5q70 0 128.5 25t102 69.5t70 104.5t31.5 130q6 70 -7.5 130t-47.5 104.5 t-88.5 70t-130.5 25.5q-60 0 -113 -15.5t-97.5 -43.5t-78.5 -67t-56 -86q-2 -18 -3.5 -29t-2 -18t-0.5 -11t-1 -7z" />
<glyph unicode="7" horiz-adv-x="1189" d="M195 1275l11 145h970l-7 -91l-690 -1329h-186l680 1275h-778z" />
<glyph unicode="8" d="M121 367q11 137 100 235.5t246 144.5q-129 42 -196.5 129.5t-57.5 214.5q7 85 48.5 152.5t107 114t151 71t181.5 24.5t177.5 -24.5t140 -71t89 -114t23.5 -152.5q-10 -127 -90.5 -214.5t-217.5 -129.5q151 -46 224 -144.5t62 -235.5q-7 -94 -53 -167t-118.5 -122.5 t-164 -75t-188.5 -25.5q-98 0 -185 25.5t-151.5 75t-99.5 122.5t-28 167zM299 380q-5 -64 15 -112.5t59.5 -81.5t96.5 -50t126 -17t129 17t104.5 50t71.5 81.5t32 112.5q5 60 -14.5 108.5t-58.5 85t-96 61t-125 38.5q-70 -14 -130 -38.5t-105 -61t-72.5 -85t-32.5 -108.5z M385 1086q-9 -109 60.5 -174.5t205.5 -91.5q140 26 219.5 91.5t88.5 174.5q4 56 -15.5 99t-56.5 72.5t-88 44.5t-109 15t-111 -15t-95 -44.5t-68.5 -72.5t-30.5 -99z" />
<glyph unicode="9" d="M166 984q8 99 49 185t110 149t163.5 99t207.5 36q122 0 214 -45.5t150.5 -134t82 -218t10.5 -297.5q-14 -173 -63 -316.5t-131 -247t-194.5 -160.5t-251.5 -57q-109 0 -191 37.5t-129 106.5l63 113q48 -57 116 -86t155 -29q100 0 178.5 48t135.5 128.5t90.5 186.5 t42.5 223v2q-64 -90 -163 -132t-224 -42q-105 0 -186.5 33.5t-136.5 93t-80.5 142.5t-17.5 182zM342 989q-5 -67 9 -125t48.5 -100.5t90.5 -66.5t135 -24q60 0 114 16t99 45.5t80 70t56 89.5q-1 7 0 17t1 18q6 70 -7 138.5t-49 123t-95.5 88t-146.5 33.5q-70 0 -129 -24.5 t-103 -68t-70.5 -102.5t-32.5 -128z" />
<glyph unicode=":" horiz-adv-x="540" d="M158 -11l17 210h217l-17 -210h-217zM225 841l17 210h217l-17 -210h-217z" />
<glyph unicode=";" horiz-adv-x="540" d="M80 -256l142 463h188l-199 -463h-131zM225 841l17 210h217l-17 -210h-217z" />
<glyph unicode="&#x3c;" horiz-adv-x="1458" d="M258 508l8 87l1044 472l-11 -153l-818 -362l757 -352l-11 -152z" />
<glyph unicode="=" horiz-adv-x="1458" d="M220 283l11 137h1049l-11 -137h-1049zM251 689l11 138h1049l-11 -138h-1049z" />
<glyph unicode="&#x3e;" horiz-adv-x="1458" d="M220 58l12 154l816 343l-755 371l12 152l967 -484l-7 -89z" />
<glyph unicode="?" horiz-adv-x="1032" d="M283 1267l11 146q75 35 149.5 50t137.5 15q92 0 169.5 -21.5t132.5 -64.5t83.5 -107.5t21.5 -151.5q-5 -64 -39 -121t-82 -110.5t-103 -103t-102.5 -97t-81 -94.5t-36.5 -94q-2 -23 -1.5 -48t1.5 -47q2 -26 5 -50h-164v60q0 26 0.5 53.5t2.5 48.5q5 61 37.5 112t78.5 97 t99.5 89.5t99.5 89.5t78.5 96.5t37.5 110.5q4 57 -16.5 97t-58.5 65.5t-89 37t-106 11.5q-69 0 -136 -17.5t-130 -51.5zM328 -11l17 210h217l-17 -210h-217z" />
<glyph unicode="@" horiz-adv-x="1895" d="M183 679q9 112 46.5 215t99 191.5t144 160.5t180 123t207 79t227.5 28q110 0 209.5 -23t184 -66t151.5 -104t111.5 -137t65.5 -165.5t13 -189.5q-9 -119 -58 -222t-122 -179.5t-161 -120.5t-175 -44q-88 0 -142.5 37t-62.5 122q-57 -64 -126 -95.5t-141 -31.5 q-60 0 -115 22.5t-95.5 67t-62.5 110.5t-15 153q5 68 29 134t61.5 124.5t86.5 108t105 85.5t116.5 56t122.5 20q78 0 136.5 -31t83.5 -85l25 85h146l-77 -250q-53 -173 -86 -276t-35 -147q-3 -37 13.5 -60.5t62.5 -23.5q59 0 116 37t103 98.5t77 142.5t38 168 q9 123 -30.5 226t-118 177.5t-193 116t-255.5 41.5q-148 0 -278 -53.5t-228.5 -146t-160 -216.5t-72.5 -264q-11 -142 29 -263.5t124 -211t207 -140t279 -50.5q147 0 283 46t245 134l74 -70q-54 -54 -123.5 -96.5t-149 -72.5t-167 -46t-177.5 -16q-182 0 -330.5 60 t-252 165.5t-154.5 249.5t-38 313zM701 582q-4 -44 5 -80t29 -62t52 -40.5t74 -14.5q66 0 126 37.5t106.5 99t76 139.5t35.5 160q4 42 -2 76.5t-23.5 59t-47 37.5t-73.5 13q-71 0 -134 -39.5t-111 -101.5t-78 -137t-35 -147z" />
<glyph unicode="A" horiz-adv-x="1425" d="M13 0l719 1456h185l490 -1456h-191l-132 397h-698l-187 -397h-186zM453 545h584l-186 605q-7 19 -14 44.5t-13 48.5q-8 27 -15 55q-12 -32 -25 -61q-10 -25 -21 -49.5t-18 -38.5z" />
<glyph unicode="B" horiz-adv-x="1352" d="M202 0l115 1456h290q81 0 155.5 -2t143.5 -10q75 -9 137.5 -37t106.5 -71q42 -44 64 -102q17 -47 18 -103q0 -13 -1 -26q-5 -60 -28.5 -114t-62 -97.5t-90 -75.5t-110.5 -49q2 0 4 -0.5t4 -0.5q71 -15 128.5 -45.5t97.5 -76.5q39 -48 58 -108q14 -46 14 -100 q0 -17 -1 -35q-7 -80 -43 -153t-101.5 -128.5t-158.5 -88.5t-213 -33h-527zM386 148h283q179 0 281.5 63t112.5 195q1 16 1 31q0 59 -18 101q-24 53 -77 84.5t-131.5 44.5t-183.5 13h-226zM439 828h196q73 0 144.5 11.5t129 39.5t95.5 76t44 122q1 14 1 26q0 55 -21 93 q-26 46 -75 70.5t-118 33t-150 8.5h-208z" />
<glyph unicode="C" horiz-adv-x="1399" d="M164 713q8 103 37 200t77.5 182.5t115 157t149 122.5t180 79.5t208.5 28.5q136 0 240 -36.5t188 -117.5l-73 -110q-144 115 -348 115q-92 0 -170 -24.5t-142 -68t-113 -102.5t-84 -128t-55.5 -145.5t-26.5 -153.5q-3 -34 -2 -66q-1 -82 15 -158q22 -106 80 -187 t152.5 -128.5t228.5 -47.5q123 0 234 35.5t199 107.5l47 -141q-99 -75 -229 -112.5t-289 -37.5q-165 0 -286.5 58t-199.5 159q-77 100 -111 234q-25 98 -25 206q0 39 3 79z" />
<glyph unicode="D" horiz-adv-x="1546" d="M193 0l115 1456h315q130 0 247.5 -15t217.5 -49t179 -89.5t131 -136.5q52 -82 76 -192q16 -75 16 -163q0 -42 -3 -87q-13 -166 -79 -299.5t-179 -228t-269.5 -145.5t-349.5 -51h-417zM377 148h261q159 0 279 42.5t203 118.5t129 181.5t56 230.5q3 42 3 81q0 112 -28 196 q-38 112 -122.5 181t-216.5 99t-309 30h-164z" />
<glyph unicode="E" horiz-adv-x="1218" d="M205 0l115 1456h867l-12 -148h-695l-38 -488h657l-12 -148h-657l-41 -524h725l-12 -148h-897z" />
<glyph unicode="F" horiz-adv-x="1137" d="M197 0l115 1456h843l-12 -148h-671l-39 -493h637l-12 -148h-637l-52 -667h-172z" />
<glyph unicode="G" horiz-adv-x="1530" d="M171 701q8 107 38.5 206.5t81 186.5t120 158.5t156 123t189 79.5t220.5 28q72 0 139.5 -11t125.5 -33.5t106 -57t82 -80.5l-77 -105q-34 36 -77.5 62t-94 43t-106 25t-113.5 8q-139 0 -249 -52t-187 -138.5t-121.5 -198t-53.5 -231.5q-3 -36 -3 -71q0 -90 19 -169 q26 -108 91 -185.5t168 -120.5t247 -43q85 0 166.5 14t155.5 43l34 426h-361l11 149h533l-53 -676q-125 -57 -253.5 -80.5t-257.5 -23.5q-180 0 -313 52t-218 147t-122 228q-26 99 -26 213q0 41 3 84z" />
<glyph unicode="H" horiz-adv-x="1555" d="M202 0l115 1456h172l-50 -634h802l50 634h171l-115 -1456h-171l53 674h-802l-53 -674h-172z" />
<glyph unicode="I" horiz-adv-x="591" d="M210 0l115 1456h172l-115 -1456h-172z" />
<glyph unicode="J" horiz-adv-x="939" d="M77 81l60 116q41 -34 89.5 -53t108.5 -19q66 0 117 27.5t86.5 76.5t56 115t26.5 144l76 968h172l-75 -957q-10 -127 -47.5 -224.5t-99 -163.5t-144 -100t-184.5 -34q-78 0 -137.5 27.5t-104.5 76.5z" />
<glyph unicode="K" horiz-adv-x="1294" d="M210 0l115 1456h172l-52 -660l95 91l601 569h216l-743 -678l682 -778h-236l-544 634l-77 91l-57 -725h-172z" />
<glyph unicode="L" horiz-adv-x="1120" d="M202 0l115 1456h172l-103 -1308h697l-10 -148h-871z" />
<glyph unicode="M" horiz-adv-x="2002" d="M200 0l115 1456h238l393 -1040l68 -204h2l101 207l560 1037h234l-115 -1456h-168l74 934l24 317l-60 -121l-606 -1130h-126l-417 1108l-47 160l-27 -337l-73 -931h-170z" />
<glyph unicode="N" horiz-adv-x="1594" d="M193 0l115 1456h206l659 -1114l68 -127l18 233l80 1008h171l-115 -1456h-208l-662 1113l-63 124l-15 -190l-82 -1047h-172z" />
<glyph unicode="O" horiz-adv-x="1663" d="M172 729q12 164 72 302t161 238.5t239.5 157t309.5 56.5q163 0 289.5 -54t210.5 -153q85 -98 123 -238q28 -102 28 -222q0 -44 -4 -90q-13 -165 -72 -302.5t-159 -237t-237.5 -154.5t-305.5 -55q-167 0 -295 53t-213 151t-123 237q-28 102 -28 221q0 44 4 90zM355 725 q-3 -36 -3 -71q0 -86 18 -164q25 -110 85 -191t155.5 -127.5t226.5 -46.5q132 0 235 46.5t175.5 128t114.5 193t52 241.5q3 37 3 73q0 86 -17 164q-24 110 -83.5 191t-154.5 127t-227 46q-131 0 -234 -50t-177 -134t-116.5 -194.5t-52.5 -231.5z" />
<glyph unicode="P" horiz-adv-x="1274" d="M203 0l115 1456h341q85 0 165.5 -7.5t152 -26t131 -50t100 -80t60.5 -115.5q14 -49 13 -111q0 -22 -1 -46q-9 -114 -65 -196t-143.5 -134.5t-198.5 -77.5t-230 -25h-222l-46 -587h-172zM433 736h261q82 0 153.5 16.5t124.5 51t85.5 87.5t38.5 127q1 18 1 35q0 65 -21 109 q-27 56 -81 88.5t-131.5 45t-172.5 12.5h-213z" />
<glyph unicode="Q" horiz-adv-x="1664" d="M178 747q12 162 73 297.5t162 233t238.5 151.5t302.5 54q163 0 289.5 -54t210.5 -152.5t122 -235.5q28 -102 28 -220q0 -41 -3 -83q-10 -132 -52.5 -254t-115.5 -220.5t-175.5 -167t-233.5 -94.5q39 -16 92 -25.5t109 -14t109 -5.5t91 -1q37 0 82.5 4.5t88.5 11.5 l-9 -154q-43 -5 -87 -7.5t-82 -2.5q-140 0 -234 14t-159 38t-110 55.5t-88 66.5q-161 0 -287.5 54t-211.5 154t-124 242q-30 104 -30 226q0 43 4 89zM355 724q-3 -36 -3 -70q0 -86 18 -164q25 -109 85 -190t155.5 -128t226.5 -47q132 0 234.5 46.5t175 128t114 193 t52.5 241.5q3 37 3 73q0 86 -17 163q-24 110 -83 191t-154 127t-227 46q-131 0 -234.5 -50t-177 -134t-116.5 -194.5t-52 -231.5z" />
<glyph unicode="R" horiz-adv-x="1377" d="M205 0l115 1456h356q59 0 129 -2t140.5 -13t134.5 -34.5t112 -65.5q48 -41 74 -107q20 -51 19 -121q0 -19 -1 -39q-6 -69 -32.5 -127t-71 -104t-104.5 -78t-132 -50h1q60 -20 96.5 -59t63.5 -100.5t51.5 -146t60.5 -195.5l70 -214h-188l-120 419q-20 68 -41 113t-52 71.5 t-76 37.5t-112 11h-270l-51 -652h-172zM440 799h266q67 0 135 12t123.5 41t92.5 79t43 127q1 15 1 29q-1 55 -19 95q-24 48 -70.5 76t-111.5 39t-143 11h-277z" />
<glyph unicode="S" horiz-adv-x="1244" d="M150 161l87 110q30 -40 72 -67.5t90 -45t100 -25.5t102 -8q79 0 146.5 15.5t117 46t79.5 75t35 103.5q1 9 1 18q0 55 -27 95q-31 46 -85 82t-124.5 64.5t-144 58.5t-143.5 64.5t-123 82.5t-83 112q-24 52 -23 120q0 16 1 33q7 96 57.5 168.5t128.5 121t174 73.5t195 25 q57 0 116.5 -7t113.5 -25t99 -47.5t74 -74.5l-92 -112q-27 33 -64 55.5t-79.5 36t-88 19.5t-90.5 6q-61 0 -123 -12.5t-113 -40t-85.5 -71t-39.5 -105.5q-1 -9 0 -17q1 -54 27 -94q32 -46 85.5 -82t124 -66t144 -61t143 -67t122.5 -85t83 -115q24 -53 25 -121q0 -16 -2 -33 q-6 -71 -33.5 -127.5t-70.5 -99.5t-99.5 -73.5t-120.5 -49.5t-132.5 -28t-135.5 -9q-73 0 -138 13t-119.5 37t-96 58t-67.5 76z" />
<glyph unicode="T" horiz-adv-x="1174" d="M135 1308l12 148h1113l-12 -148h-472l-103 -1308h-172l103 1308h-469z" />
<glyph unicode="U" horiz-adv-x="1532" d="M234 541l72 915h172l-72 -910q-2 -30 -2 -58q0 -162 78 -254q92 -108 291 -109q91 0 168 28.5t133.5 82t91 130.5t42.5 173l72 917h172l-72 -905q-12 -135 -57 -242t-123 -180.5t-190 -112.5t-256 -39q-156 0 -260.5 41t-165.5 116q-60 74 -82 178q-15 71 -15 152 q0 37 3 77z" />
<glyph unicode="V" horiz-adv-x="1336" d="M124 1456h192l333 -1149l34 -141l60 142l517 1148h179l-680 -1456h-189z" />
<glyph unicode="W" horiz-adv-x="2103" d="M136 1456h186l223 -1107l25 -160l56 145l456 1122h181l272 -1111l33 -155l48 142l399 1124h180l-538 -1456h-212l-249 1026l-45 221l-87 -221l-407 -1026h-213z" />
<glyph unicode="X" horiz-adv-x="1304" d="M11 0l595 741l-444 715h216l289 -497l62 -105l80 105l385 497h196l-568 -714l463 -742h-213l-320 538l-56 92l-70 -93l-411 -537h-204z" />
<glyph unicode="Y" horiz-adv-x="1266" d="M125 1456h191l374 -729l492 729h191l-612 -871l-46 -585h-172l46 582z" />
<glyph unicode="Z" horiz-adv-x="1222" d="M58 0l7 92l960 1216h-832l12 148h1064l-7 -88l-964 -1220h860l-12 -148h-1088z" />
<glyph unicode="[" horiz-adv-x="628" d="M171 -259l135 1710h356l-10 -122h-193l-115 -1466h194l-10 -122h-357z" />
<glyph unicode="\" horiz-adv-x="706" d="M44 1451h168l561 -1570h-166z" />
<glyph unicode="]" horiz-adv-x="628" d="M67 -259l10 122h191l115 1466h-190v122h364l-135 -1710h-355z" />
<glyph unicode="^" horiz-adv-x="1457" d="M227 550l550 882h101l420 -882h-155l-294 625l-36 85l-46 -84l-384 -626h-156z" />
<glyph unicode="_" horiz-adv-x="998" d="M-25 -273l9 128h1002l-9 -128h-1002z" />
<glyph unicode="`" horiz-adv-x="593" d="M118 1492h214l222 -320h-129z" />
<glyph unicode="a" horiz-adv-x="1244" d="M130 524q8 99 46 194t105 169t163.5 119t220.5 45q63 0 114 -11.5t93 -32.5t77 -52t63 -70l18 141h163l-24 -253l-61 -773h-165l13 144q-26 -32 -65 -62.5t-87 -53.5t-104.5 -37t-117.5 -14q-86 0 -154 22.5t-120 62t-88.5 92.5t-57.5 114q-21 60 -29 126q-5 40 -5 81 q0 24 2 49zM290 422q2 -48 14 -93.5t35 -85.5t59 -69.5t88 -47t123 -17.5q70 0 134 28.5t115 84t85 138t43 190.5q1 19 1 38q0 59 -14 110q-19 67 -60 116t-103.5 76t-142.5 27q-61 0 -111.5 -16.5t-90.5 -45.5t-71 -68t-52.5 -83.5t-34 -92.5t-16.5 -95q-2 -25 -2 -51 q0 -21 1 -43z" />
<glyph unicode="b" horiz-adv-x="1239" d="M150 0q6 68 13 123q3 24 5 47.5t4 43.5t4 35t2 21l96 1222h165l-48 -611q70 87 169 128.5t211 41.5q119 0 200.5 -43t130.5 -115q48 -71 66 -167q12 -64 12 -132q0 -34 -3 -69q-8 -112 -45.5 -211.5t-102 -174.5t-156 -118.5t-207.5 -43.5q-109 0 -192.5 40.5 t-140.5 119.5l-15 -137h-168zM363 515q-3 -34 -3 -65q0 -49 7 -92q11 -70 45.5 -119.5t94.5 -76.5t151 -27q90 0 154.5 35.5t106.5 93.5t64.5 132.5t28.5 153.5q2 20 2 40q0 54 -12 103q-16 67 -54 116.5t-95 78.5t-131 29q-81 0 -145 -32.5t-110 -88t-72 -128.5t-32 -153z " />
<glyph unicode="c" horiz-adv-x="1046" d="M131 503q9 112 51 212t113 174.5t169.5 118t220.5 43.5q121 0 209 -38t133 -105l-83 -107q-43 60 -110 88t-145 28q-83 0 -150.5 -32t-117.5 -87.5t-79.5 -130t-36.5 -159.5q-2 -26 -2 -51q1 -56 11 -106q16 -73 54 -127t101.5 -84.5t153.5 -30.5q169 0 313 116l35 -138 q-78 -58 -170 -84t-201 -26q-127 0 -219 41.5t-150.5 113t-82.5 167.5q-18 72 -19 152q0 25 2 52z" />
<glyph unicode="d" horiz-adv-x="1240" d="M133 506q8 108 45.5 206.5t102.5 174t157 120t209 44.5q111 0 196.5 -42t137.5 -121l47 604h165l-97 -1236q-4 -60 -8 -129t-6 -127h-167l7 147q-72 -92 -160.5 -131t-206.5 -39q-119 0 -203.5 41.5t-135.5 113.5q-52 72 -72 168q-14 67 -14 141q0 32 3 65zM306 507 q-2 -28 -2 -56q0 -48 6 -94q10 -72 44 -127t91.5 -88t145.5 -33q81 0 145 31.5t110 89t73.5 138.5t35.5 180q2 22 2 42q0 58 -13 109q-17 68 -55 116.5t-95 75t-130 26.5q-85 0 -149 -33t-108.5 -89t-69.5 -130.5t-31 -157.5z" />
<glyph unicode="e" horiz-adv-x="1173" d="M155 510q9 111 50.5 209t112.5 172t168 117t217 43q118 0 202 -38.5t134.5 -106t70.5 -160.5q14 -66 14 -141q0 -30 -2 -61q-1 -11 -2.5 -25.5t-3.5 -26.5h-787l-1 -45q0 -75 20 -137t59.5 -107t99 -69.5t138.5 -24.5q106 0 196.5 37t166.5 106l40 -137 q-89 -72 -192.5 -105t-231.5 -33q-121 0 -213 39.5t-151.5 110t-86.5 168.5q-20 74 -20 158q0 28 2 57zM345 609h609v14q0 65 -16 119t-49 93t-83 60.5t-115 21.5q-70 0 -128 -24.5t-101.5 -66.5t-73 -98t-43.5 -119z" />
<glyph unicode="f" horiz-adv-x="702" d="M118 919l7 107h201l11 112q8 81 28 150t58 119t97 78.5t144 28.5q21 0 38 -1.5t32 -4.5t30.5 -7t33.5 -8l-8 -129q-19 8 -49.5 11.5t-59.5 3.5q-51 0 -83.5 -14t-51.5 -41.5t-29 -68t-14 -93.5l-12 -136h247l-7 -107h-248l-72 -919h-165l72 919h-200z" />
<glyph unicode="g" horiz-adv-x="1241" d="M131 511q9 109 46.5 207.5t103.5 172t160 117t214 43.5q117 0 195 -42.5t131 -123.5q2 17 5 41.5t5 46.5q3 26 8 53h165q-6 -48 -11 -95q-5 -40 -9 -83t-6 -75l-50 -626q-5 -68 -18.5 -136.5t-39.5 -131.5t-67 -118t-103 -95.5t-146.5 -64t-196.5 -23.5q-100 0 -191 20 t-171 62l31 153q75 -49 160.5 -72t169.5 -23q88 0 159 19.5t122 60t81.5 103t37.5 148.5l10 127q-67 -88 -162 -132t-204 -44q-111 0 -195 37t-139 104t-80 161q-17 69 -17 149q0 29 2 60zM305 515q-2 -31 -2 -59q0 -53 7 -98q11 -70 45.5 -119.5t94 -76.5t150.5 -27 q90 0 155 35.5t107 93.5t64.5 132.5t28.5 153.5q2 20 2 40q0 54 -13 103q-16 67 -54 116.5t-94.5 78.5t-130.5 29q-81 0 -145 -32.5t-110 -88t-72 -128.5t-33 -153z" />
<glyph unicode="h" horiz-adv-x="1217" d="M169 0l117 1492h165l-47 -602q70 85 157 123t201 38q112 0 181.5 -36.5t107.5 -95.5q39 -59 49 -133q7 -47 6 -95q0 -27 -2 -55l-50 -636h-165l49 626q2 25 2 48q0 38 -5 70q-8 54 -34.5 92t-74.5 59.5t-121 21.5q-71 0 -128.5 -26.5t-99 -72t-67 -106t-30.5 -127.5 l-46 -585h-165z" />
<glyph unicode="i" horiz-adv-x="503" d="M167 0l81 1026h165l-81 -1026h-165zM278 1307l12 155h153l-12 -155h-153z" />
<glyph unicode="j" horiz-adv-x="503" d="M-134 -416l10 143q27 -5 47 -7.5t36 -2.5q97 0 151 75.5t67 238.5l78 995h165l-72 -920q-3 -56 -11.5 -117.5t-24 -121t-41 -113.5t-64 -94.5t-93 -64.5t-127.5 -24q-58 0 -121 13zM277 1307l12 155h153l-12 -155h-153z" />
<glyph unicode="k" horiz-adv-x="1082" d="M178 0l117 1492h165l-71 -905l501 439h225l-568 -484q130 -135 262.5 -271t262.5 -271h-219l-471 501l-39 -501h-165z" />
<glyph unicode="l" horiz-adv-x="503" d="M168 0l117 1492h165l-117 -1492h-165z" />
<glyph unicode="m" horiz-adv-x="1901" d="M169 0l60 761q5 66 9 134t6 131h167l-7 -138q66 84 152 123.5t192 39.5q58 0 108 -14.5t90.5 -40.5t69.5 -63.5t45 -83.5q66 105 161 153.5t227 48.5q109 0 177 -35.5t105 -93.5t47 -132q7 -47 7 -97q0 -28 -2 -57l-50 -636h-165l44 558q3 43 3 85q-1 21 -1 43 q-2 64 -23.5 115.5t-69 83.5t-132.5 32q-67 0 -121.5 -27.5t-94.5 -73.5t-64 -105.5t-29 -123.5l-46 -587h-165l50 635q2 19 2 38q0 37 -7 71q-10 52 -37.5 90t-74 60.5t-114.5 22.5t-122.5 -26.5t-94 -71.5t-63 -105t-28.5 -127l-46 -587h-165z" />
<glyph unicode="n" horiz-adv-x="1217" d="M168 0l61 779q4 46 6.5 90.5t4.5 79.5q1 40 3 77h167l-7 -142q66 85 154 126t203 41q112 0 182 -37t107 -103.5t47 -158.5q5 -47 4 -99q0 -49 -4 -103l-43 -550h-165l42 531q5 68 5 126v33q-2 72 -22.5 122t-66.5 77.5t-127 27.5q-75 0 -135 -29t-103.5 -70t-68.5 -86.5 t-28 -79.5l-51 -652h-165z" />
<glyph unicode="o" horiz-adv-x="1238" d="M130 511q8 111 51 209.5t116.5 172t175 116t229.5 42.5q129 0 223.5 -42t153.5 -115t85 -171q19 -72 19 -153q0 -28 -3 -57q-9 -108 -51 -205.5t-114.5 -171t-173.5 -116.5t-227 -43q-128 0 -223 42t-155 114q-61 71 -88 169q-20 73 -20 154q0 27 2 55zM303 509 q-2 -23 -2 -46q0 -55 12 -106q17 -72 57 -127.5t104.5 -88t153.5 -32.5q88 0 155.5 33t115 88.5t74 128t33.5 152.5q2 23 2 46q0 57 -11 110q-15 74 -53.5 129.5t-102 88t-153.5 32.5q-87 0 -156 -33.5t-117.5 -90t-77 -130.5t-34.5 -154z" />
<glyph unicode="p" horiz-adv-x="1239" d="M125 -427l93 1185q2 21 4 51.5t3.5 66.5t3 74.5t2.5 75.5h167l-6 -146q70 85 161.5 128t196.5 43q121 0 206.5 -42t137.5 -113.5t74 -166.5q15 -67 15 -140q0 -30 -3 -62q-8 -108 -45.5 -207.5t-102 -175.5t-156.5 -121.5t-210 -45.5q-216 0 -333 158l-44 -562h-164z M361 494q-2 -23 -2 -45q0 -58 11 -109q16 -70 52.5 -121.5t94 -80.5t135.5 -29q84 0 147.5 34t106.5 91t67 131.5t31 155.5q2 28 2 55q0 47 -6 92q-11 72 -43 127.5t-89.5 88.5t-145.5 33q-92 0 -157.5 -35t-108.5 -93.5t-65.5 -135t-29.5 -159.5z" />
<glyph unicode="q" horiz-adv-x="1240" d="M133 506q8 109 46 207.5t103 173.5t157.5 119.5t210.5 44.5q112 0 197 -40t137 -113l15 128h167q-9 -58 -15 -116t-9 -97l-98 -1239h-165l46 574q-73 -88 -170 -129.5t-212 -41.5q-112 0 -193 41t-132.5 112.5t-72.5 167.5q-15 68 -15 143q0 32 3 65zM306 507 q-2 -27 -2 -53q0 -51 8 -100q12 -72 46 -126.5t91 -86.5t141 -32q96 0 162.5 37.5t110 99t65 139t28.5 158.5q2 22 2 44q0 57 -12 107q-16 69 -52.5 118.5t-94.5 77t-134 27.5q-84 0 -148.5 -32.5t-109 -88t-70 -130.5t-31.5 -159z" />
<glyph unicode="r" horiz-adv-x="737" d="M167 0l61 779q5 63 8 126t6 121h165l-6 -155q48 85 124 132t164 47q58 0 107 -12l-11 -155q-20 11 -49.5 17.5t-63.5 6.5q-60 0 -111.5 -23.5t-90 -67.5t-63 -107t-30.5 -141l-45 -568h-165z" />
<glyph unicode="s" horiz-adv-x="1007" d="M128 94l55 135q24 -32 58 -55t74.5 -37.5t84 -21t85.5 -6.5q56 0 104 10.5t84 31t58 51t25 70.5q1 8 1 15q0 35 -17 59q-20 28 -57.5 49t-90 36.5t-114.5 35.5q-73 24 -131.5 50.5t-97.5 61.5t-58 81q-15 37 -15 85q0 13 1 26q6 71 42.5 124t92.5 87.5t124.5 51.5 t138.5 17q103 0 189 -19.5t143 -67.5l-51 -117q-51 37 -125.5 53.5t-156.5 16.5q-46 0 -86 -10t-70 -28.5t-48.5 -45t-20.5 -59.5q-3 -35 12 -60t42.5 -43.5t65.5 -33t81 -27.5q39 -12 83.5 -25t88 -30.5t82.5 -41t68 -55.5t44 -75q12 -34 12 -76q0 -11 -1 -23 q-6 -78 -46.5 -135.5t-102.5 -95.5t-139.5 -57t-157.5 -19q-53 0 -104.5 6t-98 20t-85.5 36t-65 55z" />
<glyph unicode="t" horiz-adv-x="729" d="M112 919l8 107h203l27 272l164 47l-26 -319h256l-8 -107h-256l-48 -613q-3 -34 -4 -70v-6q0 -32 8 -58q10 -30 32.5 -48.5t66.5 -18.5q32 0 67.5 8.5t78.5 23.5l-10 -123q-37 -20 -78.5 -28.5t-93.5 -8.5q-84 0 -132.5 28.5t-72 76.5t-27.5 112q-2 26 -2 52q0 40 4 83 l46 590h-203z" />
<glyph unicode="u" horiz-adv-x="1217" d="M188 298q-2 24 -2 48q0 27 2 53l49 627h165l-49 -627q-2 -25 -2 -48q0 -109 46 -169q56 -74 189 -73q72 0 129.5 26t99.5 71t67 104.5t30 125.5l46 590h165l-61 -780q-4 -66 -8 -124q-3 -46 -3 -94v-28h-170l7 135q-128 -158 -350 -158q-76 0 -133 17.5t-97 47.5t-65 71 t-38 88t-17 97z" />
<glyph unicode="v" horiz-adv-x="1063" d="M95 1026h182l227 -690q5 -17 13 -45.5t15 -57.5q8 -33 16 -70q13 36 27 69q11 28 22 57t21 47l330 690h177l-514 -1026h-168z" />
<glyph unicode="w" horiz-adv-x="1695" d="M106 1026h176l191 -742q3 -12 6 -28.5t7 -32.5q3 -18 8 -37q7 16 13 33q7 14 13 29.5t12 27.5l324 750h166l190 -740q3 -12 6 -28.5t7 -31.5q4 -18 8 -37q9 18 16 36q6 15 13 31.5t13 30.5l298 739h169l-449 -1026h-160l-215 831l-366 -831h-162z" />
<glyph unicode="x" horiz-adv-x="1043" d="M20 0l440 514l-340 512h203l251 -412l326 412h179l-418 -508l350 -518h-201l-266 418l-334 -418h-190z" />
<glyph unicode="y" horiz-adv-x="1069" d="M84 -314q86 22 143.5 54t95 68t60 74.5t38.5 74.5l21 49l-345 1020h181l265 -855l408 855h175l-540 -1098q-32 -66 -74.5 -125t-95.5 -105.5t-115 -79t-134 -45.5z" />
<glyph unicode="z" horiz-adv-x="958" d="M58 0l7 89l663 802h-574l11 135h797l-7 -87l-661 -805h613l-9 -134h-840z" />
<glyph unicode="{" horiz-adv-x="627" d="M128 534l9 122q44 4 76.5 22.5t54 48.5t33.5 71.5t16 91.5q3 63 8 126.5t8 126.5q6 73 27.5 130t62.5 96.5t104.5 60.5t152.5 21l-10 -126q-39 -1 -69 -9.5t-51 -28t-33.5 -51t-16.5 -79.5l-24 -289q-4 -59 -22 -104.5t-41 -79t-49 -55.5t-49 -34q41 -20 65 -51.5t36 -69 t14.5 -76.5t0.5 -73q-4 -49 -10 -108t-10 -110q-5 -70 -0.5 -116.5t20.5 -74t47 -38.5t78 -11l-10 -126q-70 3 -128 18.5t-99 47.5t-61 82t-14 122l22 263q3 46 3.5 90.5t-11.5 80t-42 59.5t-88 30z" />
<glyph unicode="|" horiz-adv-x="500" d="M129 -491l160 2036h157l-160 -2036h-157z" />
<glyph unicode="}" horiz-adv-x="627" d="M46 -259l10 126q47 0 79.5 11t53 38.5t32 74t17.5 116.5q4 51 7.5 110t7.5 108q3 34 11.5 73t26.5 76.5t47 69t73 51.5q-21 12 -43.5 34t-40.5 55.5t-28.5 79t-5.5 104.5l21 289q4 48 -3.5 79.5t-25.5 51t-46.5 28t-67.5 9.5l10 126q89 0 148.5 -21t95 -60.5t48 -96.5 t6.5 -130q-7 -63 -12 -126.5t-12 -126.5q-4 -50 2 -91.5t22.5 -71.5t46 -48.5t73.5 -22.5l-11 -122q-58 -6 -92 -30t-51.5 -59.5t-24 -80t-10.5 -90.5l-20 -263q-5 -72 -33 -122t-74 -82t-106.5 -47.5t-130.5 -18.5z" />
<glyph unicode="~" horiz-adv-x="1458" d="M224 440q15 52 44 99.5t69.5 84.5t93.5 59t116 22q38 0 79.5 -12t84 -29.5t84 -38.5t79.5 -38.5t70 -29.5t56 -12q33 0 62.5 15t54 40t43 57t28.5 66l122 -39q-19 -60 -48.5 -110t-70.5 -86.5t-92 -57t-110 -20.5q-30 0 -66.5 12t-76 30t-80.5 38.5t-81 38.5t-77.5 30 t-68.5 12q-39 0 -71 -16t-58 -42t-45.5 -59.5t-29.5 -68.5z" />
<glyph unicode="&#xa1;" horiz-adv-x="737" d="M241 -384l125 1078h115l-45 -1078h-195zM330 884l16 206h214l-16 -206h-214z" />
<glyph unicode="&#xa2;" horiz-adv-x="1189" d="M210 503q8 108 47 205t105.5 170.5t159 119.5t207.5 52l29 211h130l-31 -217q86 -13 149 -48t100 -88l-84 -107q-32 45 -79.5 72t-103.5 38l-113 -802q154 7 288 116l35 -138q-73 -54 -157 -80t-185 -29l-32 -233h-129l33 240q-101 15 -174.5 61.5t-119 115.5 t-64.5 156.5t-11 184.5zM383 508q-6 -71 4 -134.5t36 -114t70 -86t106 -51.5l110 790q-70 -11 -128 -46.5t-99.5 -89.5t-67 -122.5t-31.5 -145.5z" />
<glyph unicode="&#xa3;" horiz-adv-x="1189" d="M115 0l10 138q35 20 70 44t64 58.5t48 83t25 116.5l19 250h-181l9 142h182q4 78 13.5 153.5t30 144t55 127t87.5 101t126.5 66.5t173.5 24q106 0 187 -23.5t135 -67.5l-62 -120q-50 33 -118.5 51.5t-149.5 18.5q-76 0 -130 -26t-90.5 -73t-55.5 -113.5t-25 -147.5 l-7 -115h330l-9 -142h-330q-6 -77 -14 -161.5t-23 -160.5t-40 -136.5t-64 -90.5h709l-9 -141h-966z" />
<glyph unicode="&#xa4;" horiz-adv-x="1238" d="M240 659q4 56 20.5 108.5t43 97.5t63.5 81t84 60l-129 279l41 16l129 -278q67 28 157 28q63 0 123 -17l123 267l41 -16l-124 -267q101 -48 144.5 -141t33.5 -214q-4 -50 -18 -98t-37.5 -90.5t-56 -78t-72.5 -60.5l129 -280l-36 -16l-127 276q-44 -20 -90 -31t-100 -11 q-64 0 -109 13l-116 -247l-36 16l113 245q-53 21 -91.5 56.5t-63 82t-34.5 102t-5 117.5zM333 660q-5 -63 8.5 -120t45.5 -100.5t83 -69t122 -25.5q70 0 124 26t92.5 69.5t60.5 100.5t27 119q5 64 -7.5 122t-43.5 102t-82.5 69.5t-124.5 25.5q-69 0 -123.5 -26.5t-93 -70.5 t-61 -101.5t-27.5 -120.5z" />
<glyph unicode="&#xa5;" horiz-adv-x="1189" d="M131 283v140h408l12 151h-403l11 142h368l-390 704h205l251 -483l70 -141l96 140l325 484h186l-510 -704h364l-11 -142h-391l-12 -151h394l-11 -140h-391l-22 -283h-172l22 283h-399z" />
<glyph unicode="&#xa6;" horiz-adv-x="500" d="M129 -491l70 884h157l-70 -884h-157zM221 677l68 868h157l-68 -868h-157z" />
<glyph unicode="&#xa7;" horiz-adv-x="1097" d="M212 4l10 149q71 -34 136.5 -49t125.5 -15q56 0 101.5 12t77.5 32.5t50 48.5t21 61q2 33 -10 56.5t-37.5 42.5t-63 37t-85.5 39l-82 36q-104 46 -162.5 113t-51.5 162q3 43 21.5 79.5t47 67.5t64.5 55.5t75 43.5q-34 22 -60.5 46.5t-43.5 53.5t-25 63.5t-5 78.5 q6 69 40 121t89 86.5t125.5 51.5t149.5 17q64 0 116 -11.5t110 -29.5l-10 -148q-23 11 -51 20.5t-58 16.5t-59.5 11t-53.5 4q-46 0 -85.5 -7.5t-69.5 -23.5t-48.5 -42t-21.5 -62q-3 -30 6 -54.5t32 -48t63 -46.5t101 -50q58 -26 110.5 -53.5t90.5 -61.5t59.5 -75.5 t17.5 -94.5q-4 -42 -22 -79t-46 -69t-64.5 -59.5t-74.5 -49.5q35 -18 63.5 -40t47.5 -49t28.5 -61.5t6.5 -77.5q-6 -72 -44 -128t-97 -94.5t-134 -58t-155 -19.5q-69 0 -137 13t-129 39zM420 741q-3 -37 11.5 -64t43 -49t69 -41t90.5 -40q25 15 52 33.5t49 40t37 47t18 55.5 q2 32 -9.5 55.5t-33.5 42t-53 33.5t-67 31l-22 9q-10 4 -20 8.5t-19 9.5q-27 -14 -51.5 -31.5t-45.5 -38.5t-34 -46t-15 -55z" />
<glyph unicode="&#xa8;" horiz-adv-x="743" d="M220 1246l13 163h164l-14 -163h-163zM552 1246l13 163h164l-13 -163h-164z" />
<glyph unicode="&#xa9;" horiz-adv-x="1829" d="M160 726q8 104 44.5 200t96.5 180t139.5 153.5t172.5 119t197.5 77t214.5 27.5q112 0 213 -27.5t187 -77.5t154.5 -119.5t114 -154t67 -180.5t13.5 -199q-8 -104 -44.5 -200t-95.5 -180t-138 -153.5t-172 -119t-197.5 -77t-214.5 -27.5q-112 0 -214 27.5t-188 77 t-154.5 119t-114.5 153.5t-67.5 180.5t-13.5 200.5zM287 727q-7 -91 10 -173.5t55.5 -154t95.5 -129.5t129.5 -99t159 -63.5t183.5 -22.5q144 0 271.5 49.5t225 135.5t158.5 202.5t72 251.5q7 91 -10 173.5t-55.5 154t-95 129.5t-129 99t-158.5 63.5t-182 22.5 q-143 0 -271 -49t-226.5 -135t-160 -203t-72.5 -252zM517 729q9 104 50.5 192t111 151.5t163 99.5t204.5 36q172 0 286 -103l-40 -120q-103 95 -263 95q-77 0 -140 -27t-110 -74t-75 -110.5t-33 -135.5q-6 -74 12 -138t59 -112t106 -75.5t154 -27.5q66 0 128 19t116 61 l30 -121q-136 -90 -316 -90q-105 0 -190.5 37.5t-144 102.5t-87 152.5t-21.5 187.5z" />
<glyph unicode="&#xaa;" horiz-adv-x="745" d="M143 975q3 43 24 79.5t55.5 64t80.5 46.5t100 27q57 9 115.5 10.5t112.5 8.5l1 8q3 43 -2 72t-21 46t-43.5 24.5t-69.5 7.5q-30 0 -60.5 -4t-58.5 -14.5t-52.5 -29t-46.5 -46.5l-61 75q46 68 122.5 97.5t170.5 29.5q129 0 197.5 -59t59.5 -174l-1 -9l-27 -321 q-2 -11 -2.5 -31.5t-0.5 -42.5v-54h-131v74q-38 -42 -95.5 -67t-132.5 -25q-54 0 -98.5 14.5t-76 41.5t-47.5 65.5t-12 85.5zM279 977q-5 -56 31.5 -81t96.5 -25q51 0 89.5 17.5t66.5 47.5t44 68.5t21 80.5l-2 25q-35 -7 -74 -10.5t-76.5 -7.5t-72 -10.5t-61.5 -19t-44 -33 t-19 -52.5z" />
<glyph unicode="&#xab;" horiz-adv-x="1156" d="M289 541l304 373h160l-294 -373l227 -370h-157zM659 541l303 373h159l-292 -373l227 -370h-157z" />
<glyph unicode="&#xac;" horiz-adv-x="1458" d="M252 659l11 139h1048l-44 -560h-150l33 421h-898z" />
<glyph unicode="&#xad;" horiz-adv-x="728" d="M118 489l10 137h571l-10 -137h-571z" />
<glyph unicode="&#xae;" horiz-adv-x="1829" d="M160 726q8 104 44.5 200t96.5 180t139.5 153.5t172.5 119t197.5 77t214.5 27.5q112 0 213 -27.5t187 -77.5t154.5 -119.5t114 -154t67 -180.5t13.5 -199q-8 -104 -44.5 -200t-95.5 -180t-138 -153.5t-172 -119t-197.5 -77t-214.5 -27.5q-112 0 -214 27.5t-188 77 t-154.5 119t-114.5 153.5t-67.5 180.5t-13.5 200.5zM287 727q-7 -91 10 -173.5t55.5 -154t95.5 -129.5t129.5 -99t159 -63.5t183.5 -22.5q96 0 185 22.5t167.5 63.5t144.5 99t114.5 129t78.5 153t37 172q7 91 -10 173.5t-55.5 154t-95 129.5t-129 99t-158.5 63.5t-182 22.5 q-143 0 -271 -49t-226.5 -135.5t-160 -203t-72.5 -251.5zM619 273l72 919h273q219 0 319.5 -66.5t91.5 -190.5q-4 -46 -23 -88t-53.5 -76t-87 -57.5t-121.5 -32.5q26 -26 51.5 -61.5t51.5 -77.5t52 -89t52 -96l45 -84h-168l-107 212q-33 66 -66 111t-67 68h-137l-30 -391 h-148zM805 783h125q64 0 115.5 4t89 18.5t59 41.5t24.5 73q4 50 -9 80t-45.5 46t-87 21t-132.5 5h-118z" />
<glyph unicode="&#xaf;" horiz-adv-x="850" d="M106 1380l10 130h856l-10 -130h-856z" />
<glyph unicode="&#xb0;" horiz-adv-x="844" d="M186 1150q5 61 34.5 114.5t76 93.5t106.5 63t125 23t121 -23t96.5 -63t62 -93.5t16.5 -114.5t-34.5 -114.5t-77 -93.5t-107 -63.5t-123.5 -23.5q-65 0 -121 23.5t-96.5 63.5t-62 93.5t-16.5 114.5zM311 1151q-3 -38 9.5 -71t37 -57t58.5 -38t75 -14q40 0 76.5 14t65 38 t46 57t20.5 71t-10 70.5t-37.5 56t-59 37t-73.5 13.5t-75.5 -13.5t-65 -37t-46.5 -56t-21 -70.5z" />
<glyph unicode="&#xb1;" horiz-adv-x="1458" d="M200 0l11 138h1049l-11 -138h-1049zM235 595l11 138h457l29 374h149l-29 -374h451l-11 -138h-447l-29 -372h-151l29 372h-459z" />
<glyph unicode="&#xb2;" d="M331 604l9 111l102 87q59 51 120.5 106t113 108.5t84.5 103t37 91.5q4 51 -30.5 81.5t-100.5 30.5q-63 0 -112.5 -35t-83.5 -96l-79 78q42 81 118 125.5t172 44.5q56 0 102.5 -16t80 -45.5t50 -71.5t12.5 -94q-5 -65 -38.5 -125t-87 -119.5t-125.5 -120t-153 -126.5h364 l-9 -118h-546z" />
<glyph unicode="&#xb3;" d="M289 683l68 96q77 -78 174 -78q36 0 69 9t58 26.5t41 43t18 57.5q3 37 -10 62.5t-39.5 41.5t-66 23t-88.5 7q-4 0 -8 -0.5t-7 -0.5h-41l9 119h49q43 0 79.5 6t64 20.5t44 37.5t18.5 57q3 29 -6 50.5t-27 35t-43 20t-56 6.5q-54 0 -103 -21.5t-95 -56.5l-50 96 q49 45 118.5 73t141.5 28q52 0 100 -15t83.5 -44t55 -71.5t15.5 -97.5q-5 -59 -36 -106t-86 -75q58 -27 88.5 -76.5t24.5 -121.5q-5 -57 -32.5 -103t-71 -78.5t-99.5 -49.5t-116 -17q-72 0 -133 24.5t-105 72.5z" />
<glyph unicode="&#xb4;" horiz-adv-x="607" d="M267 1172l251 320h212l-333 -320h-130z" />
<glyph unicode="&#xb6;" horiz-adv-x="1214" d="M196 1130q7 94 53.5 156t120.5 98.5t168.5 51.5t198.5 15h386l-9 -124h-87l-117 -1475h-129l117 1475h-208l-117 -1475h-143l74 934q-68 1 -127 26t-101 70t-64 108t-16 140z" />
<glyph unicode="&#xb7;" horiz-adv-x="444" d="M116 513l17 210h217l-17 -210h-217z" />
<glyph unicode="&#xb8;" horiz-adv-x="529" d="M23 -374l15 85q43 -11 80.5 -17.5t68.5 -6.5q63 0 90 20t29 52q4 41 -25.5 57t-77.5 16q-3 0 -14 -1t-23 -2l-32 -2l48 190h97l-27 -107q42 -1 79.5 -9.5t64.5 -26.5t42 -45.5t12 -67.5q-4 -40 -24.5 -69.5t-54.5 -49t-79 -29t-96 -9.5q-39 0 -83.5 6.5t-89.5 15.5z" />
<glyph unicode="&#xb9;" d="M318 604l9 119h122l28 346q2 33 4 65.5t5 65.5l5 71q-33 -17 -74.5 -35t-82.5 -33l11 130q55 17 96.5 37.5t78.5 41.5l106 15l-56 -707h122l-9 -116h-365z" />
<glyph unicode="&#xba;" horiz-adv-x="824" d="M142 1124q6 74 35 138t79 111.5t119.5 75t156.5 27.5q88 0 152.5 -27.5t106.5 -75.5t60 -112.5t12 -139.5q-6 -73 -34.5 -137.5t-78 -112.5t-118 -76t-155.5 -28q-90 0 -155.5 27.5t-107.5 75.5t-60 113.5t-12 140.5zM282 1123q-4 -51 6 -96.5t35 -79t65.5 -53 t96.5 -19.5q53 0 95.5 19.5t73.5 53t49 78t22 93.5q4 52 -7 97.5t-36.5 79.5t-66 53.5t-94.5 19.5q-53 0 -95.5 -19.5t-73 -53.5t-48.5 -78.5t-22 -94.5z" />
<glyph unicode="&#xbb;" horiz-adv-x="1156" d="M178 171l294 371l-229 372h158l241 -372l-304 -371h-160zM576 171l290 371l-225 372h156l241 -372l-305 -371h-157z" />
<glyph unicode="&#xbc;" horiz-adv-x="1986" d="M318 604l9 119h122l28 346q2 33 4 65.5t5 65.5l5 71q-33 -17 -74.5 -35t-82.5 -33l11 130q55 17 96.5 37.5t78.5 41.5l106 15l-56 -707h122l-9 -116h-365zM437 0l1018 1436h149l-1016 -1436h-151zM1082 225l7 91l407 518h134l-40 -502h109l2 -107h-121l-15 -188h-120 l15 188h-378zM1229 332h237l15 180l15 156z" />
<glyph unicode="&#xbd;" horiz-adv-x="1858" d="M318 604l9 119h122l28 346q2 33 4 65.5t5 65.5l5 71q-33 -17 -74.5 -35t-82.5 -33l11 130q55 17 96.5 37.5t78.5 41.5l106 15l-56 -707h122l-9 -116h-365zM379 0l1018 1436h149l-1016 -1436h-151zM1062 -25l9 111l102 87q59 51 120.5 106t113 108.5t84.5 103t37 91.5 q4 51 -30.5 81.5t-100.5 30.5q-63 0 -112.5 -35t-83.5 -96l-79 78q42 81 118 125.5t172 44.5q56 0 102.5 -16t80 -45.5t50 -71.5t12.5 -94q-5 -65 -38.5 -125t-87 -119.5t-125.5 -120t-153 -126.5h364l-9 -118h-546z" />
<glyph unicode="&#xbe;" horiz-adv-x="1921" d="M234 683l68 96q77 -78 174 -78q36 0 69 9t58 26.5t41 43t18 57.5q3 37 -10 62.5t-39.5 41.5t-66 23t-88.5 7q-4 0 -8 -0.5t-7 -0.5h-41l9 119h49q43 0 79.5 6t64 20.5t44 37.5t18.5 57q3 29 -6 50.5t-27 35t-43 20t-56 6.5q-54 0 -103 -21.5t-95 -56.5l-50 96 q49 45 118.5 73t141.5 28q52 0 100 -15t83.5 -44t55 -71.5t15.5 -97.5q-5 -59 -36 -106t-86 -75q58 -27 88.5 -76.5t24.5 -121.5q-5 -57 -32.5 -103t-71 -78.5t-99.5 -49.5t-116 -17q-72 0 -133 24.5t-105 72.5zM423 0l1018 1436h149l-1016 -1436h-151zM1051 229l7 91 l407 518h134l-40 -502h109l2 -107h-121l-15 -188h-120l15 188h-378zM1198 336h237l15 180l15 156z" />
<glyph unicode="&#xbf;" horiz-adv-x="1032" d="M141 -63q5 63 39 120.5t82 111t103 103t103 97t81 94.5t37 94q1 23 0 48t-2 47q-2 26 -4 50h164v-60q0 -26 -0.5 -54t-2.5 -48q-4 -61 -37 -112t-79 -97t-99.5 -89.5t-99.5 -89.5t-78.5 -96.5t-37.5 -110.5q-4 -57 17 -97t59 -65.5t88.5 -37t105.5 -11.5q69 0 136.5 17.5 t129.5 51.5l-11 -146q-75 -35 -149 -50t-137 -15q-92 0 -170 21.5t-133 64.5t-83.5 107.5t-21.5 151.5zM567 871l17 210h217l-17 -210h-217z" />
<glyph unicode="&#xc0;" horiz-adv-x="1425" d="M13 0l719 1456h185l490 -1456h-191l-132 397h-698l-187 -397h-186zM453 545h584l-186 605q-7 19 -14 44.5t-13 48.5q-8 27 -15 55q-12 -32 -25 -61q-10 -25 -21 -49.5t-18 -38.5zM633 1922h214l222 -320h-129z" />
<glyph unicode="&#xc1;" horiz-adv-x="1425" d="M13 0l719 1456h185l490 -1456h-191l-132 397h-698l-187 -397h-186zM453 545h584l-186 605q-7 19 -14 44.5t-13 48.5q-8 27 -15 55q-12 -32 -25 -61q-10 -25 -21 -49.5t-18 -38.5zM619 1602l251 320h212l-333 -320h-130z" />
<glyph unicode="&#xc2;" horiz-adv-x="1425" d="M13 0l719 1456h185l490 -1456h-191l-132 397h-698l-187 -397h-186zM453 545h584l-186 605q-7 19 -14 44.5t-13 48.5q-8 27 -15 55q-12 -32 -25 -61q-10 -25 -21 -49.5t-18 -38.5zM531 1600l253 324h157l204 -324h-132l-161 216l-195 -216h-126z" />
<glyph unicode="&#xc3;" horiz-adv-x="1425" d="M13 0l719 1456h185l490 -1456h-191l-132 397h-698l-187 -397h-186zM453 545h584l-186 605q-7 19 -14 44.5t-13 48.5q-8 27 -15 55q-12 -32 -25 -61q-10 -25 -21 -49.5t-18 -38.5zM519 1633q8 47 27 85.5t46.5 66.5t64 43t78.5 15q35 0 66.5 -10.5t61.5 -23.5t58.5 -23.5 t57.5 -10.5q34 0 59.5 22.5t34.5 67.5h108q-8 -45 -25.5 -84t-45 -68.5t-63 -46t-78.5 -16.5q-30 0 -61.5 10.5t-63.5 23.5t-63 23.5t-59 10.5q-81 0 -98 -85h-105z" />
<glyph unicode="&#xc4;" horiz-adv-x="1425" d="M13 0l719 1456h185l490 -1456h-191l-132 397h-698l-187 -397h-186zM453 545h584l-186 605q-7 19 -14 44.5t-13 48.5q-8 27 -15 55q-12 -32 -25 -61q-10 -25 -21 -49.5t-18 -38.5zM596 1676l13 163h164l-14 -163h-163zM928 1676l13 163h164l-13 -163h-164z" />
<glyph unicode="&#xc5;" horiz-adv-x="1425" d="M13 0l719 1456h185l490 -1456h-191l-132 397h-698l-187 -397h-186zM453 545h584l-186 605q-7 19 -14 44.5t-13 48.5q-8 27 -15 55q-12 -32 -25 -61q-10 -25 -21 -49.5t-18 -38.5zM641 1769q3 41 22.5 76t50 60.5t70 40t82.5 14.5q44 0 81.5 -15t64 -40.5t39.5 -60.5 t10 -74q-3 -40 -22.5 -74.5t-50 -60.5t-70 -41t-81.5 -15q-44 0 -81.5 14.5t-64 40t-40 60.5t-10.5 75zM740 1770q-3 -46 24 -75.5t78 -29.5q22 0 42.5 8.5t37.5 22.5t27.5 33.5t11.5 40.5q2 22 -5 41t-21 33t-34 22.5t-43 8.5q-22 0 -42.5 -8.5t-36.5 -22.5t-26.5 -33.5 t-12.5 -40.5z" />
<glyph unicode="&#xc6;" horiz-adv-x="2028" d="M5 0l946 1456h1039l-9 -148h-719v-488h637l-9 -148h-621v-524h641l-9 -148h-797v398h-646l-257 -398h-196zM549 546h548v762h-50z" />
<glyph unicode="&#xc7;" horiz-adv-x="1399" d="M164 713q8 103 37 200t77.5 182.5t115 157t149 122.5t180 79.5t208.5 28.5q136 0 240 -36.5t188 -117.5l-73 -110q-144 115 -348 115q-92 0 -170 -24.5t-142 -68t-113 -102.5t-84 -128t-55.5 -145.5t-26.5 -153.5q-9 -118 13.5 -224.5t80 -187t152 -128t228.5 -47.5 q123 0 234 35.5t199 107.5l47 -141q-99 -75 -229 -112.5t-289 -37.5q-165 0 -286.5 58t-199.5 158.5t-111.5 234t-21.5 285.5zM462 -374l15 85q43 -11 80.5 -17.5t68.5 -6.5q63 0 90 20t29 52q4 41 -25.5 57t-77.5 16q-3 0 -14 -1t-23 -2l-32 -2l48 190h97l-27 -107 q42 -1 79.5 -9.5t64.5 -26.5t42 -45.5t12 -67.5q-4 -40 -24.5 -69.5t-54.5 -49t-79 -29t-96 -9.5q-39 0 -83.5 6.5t-89.5 15.5z" />
<glyph unicode="&#xc8;" horiz-adv-x="1218" d="M205 0l115 1456h867l-12 -148h-695l-38 -488h657l-12 -148h-657l-41 -524h725l-12 -148h-897zM529 1922h214l222 -320h-129z" />
<glyph unicode="&#xc9;" horiz-adv-x="1218" d="M205 0l115 1456h867l-12 -148h-695l-38 -488h657l-12 -148h-657l-41 -524h725l-12 -148h-897zM516 1602l251 320h212l-333 -320h-130z" />
<glyph unicode="&#xca;" horiz-adv-x="1218" d="M205 0l115 1456h867l-12 -148h-695l-38 -488h657l-12 -148h-657l-41 -524h725l-12 -148h-897zM428 1600l253 324h157l204 -324h-132l-161 216l-195 -216h-126z" />
<glyph unicode="&#xcb;" horiz-adv-x="1218" d="M205 0l115 1456h867l-12 -148h-695l-38 -488h657l-12 -148h-657l-41 -524h725l-12 -148h-897zM493 1676l13 163h164l-14 -163h-163zM825 1676l13 163h164l-13 -163h-164z" />
<glyph unicode="&#xcc;" horiz-adv-x="591" d="M210 0l115 1456h172l-115 -1456h-172zM216 1922h214l222 -320h-129z" />
<glyph unicode="&#xcd;" horiz-adv-x="591" d="M204 1602l251 320h212l-333 -320h-130zM210 0l115 1456h172l-115 -1456h-172z" />
<glyph unicode="&#xce;" horiz-adv-x="591" d="M116 1600l253 324h157l204 -324h-132l-161 216l-195 -216h-126zM210 0l115 1456h172l-115 -1456h-172z" />
<glyph unicode="&#xcf;" horiz-adv-x="591" d="M181 1676l13 163h164l-14 -163h-163zM210 0l115 1456h172l-115 -1456h-172zM513 1676l13 163h164l-13 -163h-164z" />
<glyph unicode="&#xd0;" horiz-adv-x="1546" d="M52 658l10 137h194l52 661h315q130 0 247.5 -15t217.5 -49t179 -89.5t132 -137t76 -191t12 -250.5q-13 -166 -79 -299.5t-179 -228t-269.5 -145.5t-349.5 -51h-417l52 658h-193zM377 148h261q159 0 279.5 42.5t203.5 118.5t128.5 181.5t55.5 230.5q13 164 -24 276.5 t-122.5 181.5t-217.5 99t-309 30h-164l-40 -513h205l-10 -137h-206z" />
<glyph unicode="&#xd1;" horiz-adv-x="1594" d="M193 0l115 1456h206l659 -1114l68 -127l18 233l80 1008h171l-115 -1456h-208l-662 1113l-63 124l-15 -190l-82 -1047h-172zM604 1633q8 47 27 85.5t46.5 66.5t64 43t78.5 15q35 0 66.5 -10.5t61.5 -23.5t58.5 -23.5t57.5 -10.5q34 0 59.5 22.5t34.5 67.5h108 q-8 -45 -25.5 -84t-45 -68.5t-63 -46t-78.5 -16.5q-30 0 -61.5 10.5t-63.5 23.5t-63 23.5t-59 10.5q-81 0 -98 -85h-105z" />
<glyph unicode="&#xd2;" horiz-adv-x="1663" d="M172 729q12 164 72 302t161 238.5t239.5 157t309.5 56.5q163 0 289.5 -54t211 -153t122.5 -238.5t24 -311.5q-13 -165 -72 -302.5t-159 -237t-237.5 -154.5t-305.5 -55q-167 0 -295 53t-213 151t-123 237t-24 311zM355 725q-10 -126 15 -235.5t85 -190.5t155.5 -127.5 t226.5 -46.5q132 0 235 46.5t175.5 128t114.5 193t52 241.5q10 127 -14 237t-83.5 191t-154.5 127t-227 46q-131 0 -234 -50t-177 -134t-116.5 -194.5t-52.5 -231.5zM752 1922h214l222 -320h-129z" />
<glyph unicode="&#xd3;" horiz-adv-x="1663" d="M172 729q12 164 72 302t161 238.5t239.5 157t309.5 56.5q163 0 289.5 -54t211 -153t122.5 -238.5t24 -311.5q-13 -165 -72 -302.5t-159 -237t-237.5 -154.5t-305.5 -55q-167 0 -295 53t-213 151t-123 237t-24 311zM355 725q-10 -126 15 -235.5t85 -190.5t155.5 -127.5 t226.5 -46.5q132 0 235 46.5t175.5 128t114.5 193t52 241.5q10 127 -14 237t-83.5 191t-154.5 127t-227 46q-131 0 -234 -50t-177 -134t-116.5 -194.5t-52.5 -231.5zM738 1602l251 320h212l-333 -320h-130z" />
<glyph unicode="&#xd4;" horiz-adv-x="1663" d="M172 729q12 164 72 302t161 238.5t239.5 157t309.5 56.5q163 0 289.5 -54t211 -153t122.5 -238.5t24 -311.5q-13 -165 -72 -302.5t-159 -237t-237.5 -154.5t-305.5 -55q-167 0 -295 53t-213 151t-123 237t-24 311zM355 725q-10 -126 15 -235.5t85 -190.5t155.5 -127.5 t226.5 -46.5q132 0 235 46.5t175.5 128t114.5 193t52 241.5q10 127 -14 237t-83.5 191t-154.5 127t-227 46q-131 0 -234 -50t-177 -134t-116.5 -194.5t-52.5 -231.5zM650 1600l253 324h157l204 -324h-132l-161 216l-195 -216h-126z" />
<glyph unicode="&#xd5;" horiz-adv-x="1663" d="M172 729q12 164 72 302t161 238.5t239.5 157t309.5 56.5q163 0 289.5 -54t211 -153t122.5 -238.5t24 -311.5q-13 -165 -72 -302.5t-159 -237t-237.5 -154.5t-305.5 -55q-167 0 -295 53t-213 151t-123 237t-24 311zM355 725q-10 -126 15 -235.5t85 -190.5t155.5 -127.5 t226.5 -46.5q132 0 235 46.5t175.5 128t114.5 193t52 241.5q10 127 -14 237t-83.5 191t-154.5 127t-227 46q-131 0 -234 -50t-177 -134t-116.5 -194.5t-52.5 -231.5zM638 1633q8 47 27 85.5t46.5 66.5t64 43t78.5 15q35 0 66.5 -10.5t61.5 -23.5t58.5 -23.5t57.5 -10.5 q34 0 59.5 22.5t34.5 67.5h108q-8 -45 -25.5 -84t-45 -68.5t-63 -46t-78.5 -16.5q-30 0 -61.5 10.5t-63.5 23.5t-63 23.5t-59 10.5q-81 0 -98 -85h-105z" />
<glyph unicode="&#xd6;" horiz-adv-x="1663" d="M172 729q12 164 72 302t161 238.5t239.5 157t309.5 56.5q163 0 289.5 -54t211 -153t122.5 -238.5t24 -311.5q-13 -165 -72 -302.5t-159 -237t-237.5 -154.5t-305.5 -55q-167 0 -295 53t-213 151t-123 237t-24 311zM355 725q-10 -126 15 -235.5t85 -190.5t155.5 -127.5 t226.5 -46.5q132 0 235 46.5t175.5 128t114.5 193t52 241.5q10 127 -14 237t-83.5 191t-154.5 127t-227 46q-131 0 -234 -50t-177 -134t-116.5 -194.5t-52.5 -231.5zM715 1676l13 163h164l-14 -163h-163zM1047 1676l13 163h164l-13 -163h-164z" />
<glyph unicode="&#xd7;" horiz-adv-x="1458" d="M342 257l319 297l-272 297l111 103l273 -297l320 297l96 -104l-321 -296l274 -296l-112 -104l-273 296l-320 -296z" />
<glyph unicode="&#xd8;" horiz-adv-x="1663" d="M172 729q12 164 72 302t161 238.5t239.5 157t309.5 56.5q163 0 289.5 -54t211 -153t122.5 -238.5t24 -311.5q-13 -165 -72 -302.5t-159 -237t-237.5 -154.5t-305.5 -55q-167 0 -295 53t-213 151t-123 237t-24 311zM355 725q-10 -126 15 -235.5t85 -190.5t155.5 -127.5 t226.5 -46.5q132 0 235 46.5t175.5 128t114.5 193t52 241.5q10 127 -14 237t-83.5 191t-154.5 127t-227 46q-131 0 -234 -50t-177 -134t-116.5 -194.5t-52.5 -231.5zM433 -117l768 1666h167l-772 -1666h-163z" />
<glyph unicode="&#xd9;" horiz-adv-x="1532" d="M234 541l72 915h172l-72 -910q-16 -204 76.5 -312.5t290.5 -108.5q91 0 168 28.5t133.5 82t91 130.5t42.5 173l72 917h172l-72 -905q-12 -135 -57 -242t-123 -180.5t-190 -112.5t-256 -39q-156 0 -260.5 41t-165.5 115.5t-82.5 178.5t-11.5 229zM686 1922h214l222 -320 h-129z" />
<glyph unicode="&#xda;" horiz-adv-x="1532" d="M234 541l72 915h172l-72 -910q-16 -204 76.5 -312.5t290.5 -108.5q91 0 168 28.5t133.5 82t91 130.5t42.5 173l72 917h172l-72 -905q-12 -135 -57 -242t-123 -180.5t-190 -112.5t-256 -39q-156 0 -260.5 41t-165.5 115.5t-82.5 178.5t-11.5 229zM673 1602l251 320h212 l-333 -320h-130z" />
<glyph unicode="&#xdb;" horiz-adv-x="1532" d="M234 541l72 915h172l-72 -910q-16 -204 76.5 -312.5t290.5 -108.5q91 0 168 28.5t133.5 82t91 130.5t42.5 173l72 917h172l-72 -905q-12 -135 -57 -242t-123 -180.5t-190 -112.5t-256 -39q-156 0 -260.5 41t-165.5 115.5t-82.5 178.5t-11.5 229zM585 1600l253 324h157 l204 -324h-132l-161 216l-195 -216h-126z" />
<glyph unicode="&#xdc;" horiz-adv-x="1532" d="M234 541l72 915h172l-72 -910q-16 -204 76.5 -312.5t290.5 -108.5q91 0 168 28.5t133.5 82t91 130.5t42.5 173l72 917h172l-72 -905q-12 -135 -57 -242t-123 -180.5t-190 -112.5t-256 -39q-156 0 -260.5 41t-165.5 115.5t-82.5 178.5t-11.5 229zM650 1676l13 163h164 l-14 -163h-163zM982 1676l13 163h164l-13 -163h-164z" />
<glyph unicode="&#xdd;" horiz-adv-x="1266" d="M125 1456h191l374 -729l492 729h191l-612 -871l-46 -585h-172l46 582zM540 1602l251 320h212l-333 -320h-130z" />
<glyph unicode="&#xde;" horiz-adv-x="1274" d="M203 0l115 1456h172l-12 -144h169q85 0 166 -7.5t152.5 -26t130.5 -50t100 -80t60.5 -115.5t12.5 -157q-9 -114 -65 -196t-143.5 -134.5t-198.5 -77.5t-230 -25h-222l-35 -443h-172zM422 592h261q82 0 153 16.5t124.5 51t86 87.5t38.5 127q7 87 -20 143.5t-81 89 t-131.5 45t-172.5 12.5h-213z" />
<glyph unicode="&#xdf;" horiz-adv-x="1257" d="M176 0l82 1071q7 100 42.5 181t95.5 138.5t142.5 89t184.5 31.5q96 0 169.5 -25t122.5 -68.5t72 -101.5t18 -124q-5 -67 -42 -126.5t-86.5 -108t-102.5 -85.5t-91 -59q-7 -4 -8 -7q0 -3 7 -6q77 -31 154 -69.5t138.5 -92.5t97.5 -126t28 -171q-7 -83 -44 -150 t-94.5 -114.5t-128 -73.5t-143.5 -26q-86 0 -167.5 38.5t-140.5 122.5l73 105q54 -69 118 -101.5t124 -32.5q40 0 77 14t66 41t48 67t23 91q6 76 -23.5 136t-80.5 109.5t-116 90.5t-128 79l-32 19l27 136q48 21 93 51t80.5 68.5t58.5 83.5t27 96q3 45 -10 80t-39.5 60 t-66.5 38t-89 13q-70 0 -123 -27.5t-88.5 -74t-56 -109.5t-25.5 -133q-5 -65 -11.5 -149t-13.5 -178t-14 -192.5t-14.5 -192.5t-13.5 -178t-11 -148h-165z" />
<glyph unicode="&#xe0;" horiz-adv-x="1244" d="M130 524q8 99 46 194t105 169t163.5 119t220.5 45q63 0 114 -11.5t93 -32.5t77 -52t63 -70l18 141h163l-24 -253l-61 -773h-165l13 144q-26 -32 -65 -62.5t-87 -53.5t-104.5 -37t-117.5 -14q-86 0 -154 22.5t-120 62t-88.5 92.5t-57.5 114t-29 126.5t-3 129.5z M290.5 421.5q2.5 -48.5 14 -93.5t34.5 -85t59 -69.5t88 -47t123 -17.5q70 0 134 28.5t115 84t85 138t43 190.5q6 81 -13 148t-60 116t-103.5 76t-142.5 27q-61 0 -111.5 -16.5t-90.5 -45.5t-71 -68t-52.5 -83.5t-34 -92.5t-16.5 -95q-3 -46 -0.5 -94.5zM508 1492h214 l222 -320h-129z" />
<glyph unicode="&#xe1;" horiz-adv-x="1244" d="M130 524q8 99 46 194t105 169t163.5 119t220.5 45q63 0 114 -11.5t93 -32.5t77 -52t63 -70l18 141h163l-24 -253l-61 -773h-165l13 144q-26 -32 -65 -62.5t-87 -53.5t-104.5 -37t-117.5 -14q-86 0 -154 22.5t-120 62t-88.5 92.5t-57.5 114t-29 126.5t-3 129.5z M290.5 421.5q2.5 -48.5 14 -93.5t34.5 -85t59 -69.5t88 -47t123 -17.5q70 0 134 28.5t115 84t85 138t43 190.5q6 81 -13 148t-60 116t-103.5 76t-142.5 27q-61 0 -111.5 -16.5t-90.5 -45.5t-71 -68t-52.5 -83.5t-34 -92.5t-16.5 -95q-3 -46 -0.5 -94.5zM495 1172l251 320 h212l-333 -320h-130z" />
<glyph unicode="&#xe2;" horiz-adv-x="1244" d="M130 524q8 99 46 194t105 169t163.5 119t220.5 45q63 0 114 -11.5t93 -32.5t77 -52t63 -70l18 141h163l-24 -253l-61 -773h-165l13 144q-26 -32 -65 -62.5t-87 -53.5t-104.5 -37t-117.5 -14q-86 0 -154 22.5t-120 62t-88.5 92.5t-57.5 114t-29 126.5t-3 129.5z M290.5 421.5q2.5 -48.5 14 -93.5t34.5 -85t59 -69.5t88 -47t123 -17.5q70 0 134 28.5t115 84t85 138t43 190.5q6 81 -13 148t-60 116t-103.5 76t-142.5 27q-61 0 -111.5 -16.5t-90.5 -45.5t-71 -68t-52.5 -83.5t-34 -92.5t-16.5 -95q-3 -46 -0.5 -94.5zM407 1170l253 324 h157l204 -324h-132l-161 216l-195 -216h-126z" />
<glyph unicode="&#xe3;" horiz-adv-x="1244" d="M130 524q8 99 46 194t105 169t163.5 119t220.5 45q63 0 114 -11.5t93 -32.5t77 -52t63 -70l18 141h163l-24 -253l-61 -773h-165l13 144q-26 -32 -65 -62.5t-87 -53.5t-104.5 -37t-117.5 -14q-86 0 -154 22.5t-120 62t-88.5 92.5t-57.5 114t-29 126.5t-3 129.5z M290.5 421.5q2.5 -48.5 14 -93.5t34.5 -85t59 -69.5t88 -47t123 -17.5q70 0 134 28.5t115 84t85 138t43 190.5q6 81 -13 148t-60 116t-103.5 76t-142.5 27q-61 0 -111.5 -16.5t-90.5 -45.5t-71 -68t-52.5 -83.5t-34 -92.5t-16.5 -95q-3 -46 -0.5 -94.5zM395 1203 q8 47 27 85.5t46.5 66.5t64 43t78.5 15q35 0 66.5 -10.5t61.5 -23.5t58.5 -23.5t57.5 -10.5q34 0 59.5 22.5t34.5 67.5h108q-8 -45 -25.5 -84t-45 -68.5t-63 -46t-78.5 -16.5q-30 0 -61.5 10.5t-63.5 23.5t-63 23.5t-59 10.5q-81 0 -98 -85h-105z" />
<glyph unicode="&#xe4;" horiz-adv-x="1244" d="M130 524q8 99 46 194t105 169t163.5 119t220.5 45q63 0 114 -11.5t93 -32.5t77 -52t63 -70l18 141h163l-24 -253l-61 -773h-165l13 144q-26 -32 -65 -62.5t-87 -53.5t-104.5 -37t-117.5 -14q-86 0 -154 22.5t-120 62t-88.5 92.5t-57.5 114t-29 126.5t-3 129.5z M290.5 421.5q2.5 -48.5 14 -93.5t34.5 -85t59 -69.5t88 -47t123 -17.5q70 0 134 28.5t115 84t85 138t43 190.5q6 81 -13 148t-60 116t-103.5 76t-142.5 27q-61 0 -111.5 -16.5t-90.5 -45.5t-71 -68t-52.5 -83.5t-34 -92.5t-16.5 -95q-3 -46 -0.5 -94.5zM472 1246l13 163h164 l-14 -163h-163zM804 1246l13 163h164l-13 -163h-164z" />
<glyph unicode="&#xe5;" horiz-adv-x="1244" d="M130 524q8 99 46 194t105 169t163.5 119t220.5 45q63 0 114 -11.5t93 -32.5t77 -52t63 -70l18 141h163l-24 -253l-61 -773h-165l13 144q-26 -32 -65 -62.5t-87 -53.5t-104.5 -37t-117.5 -14q-86 0 -154 22.5t-120 62t-88.5 92.5t-57.5 114t-29 126.5t-3 129.5z M290.5 421.5q2.5 -48.5 14 -93.5t34.5 -85t59 -69.5t88 -47t123 -17.5q70 0 134 28.5t115 84t85 138t43 190.5q6 81 -13 148t-60 116t-103.5 76t-142.5 27q-61 0 -111.5 -16.5t-90.5 -45.5t-71 -68t-52.5 -83.5t-34 -92.5t-16.5 -95q-3 -46 -0.5 -94.5zM517 1339 q3 41 22.5 76t50 60.5t70 40t82.5 14.5q44 0 81.5 -15t64 -40.5t39.5 -60.5t10 -74q-3 -40 -22.5 -74.5t-50 -60.5t-70 -41t-81.5 -15q-44 0 -81.5 14.5t-64 40t-40 60.5t-10.5 75zM616 1340q-3 -46 24 -75.5t78 -29.5q22 0 42.5 8.5t37.5 22.5t27.5 33.5t11.5 40.5 q2 22 -5 41t-21 33t-34 22.5t-43 8.5q-22 0 -42.5 -8.5t-36.5 -22.5t-26.5 -33.5t-12.5 -40.5z" />
<glyph unicode="&#xe6;" horiz-adv-x="1807" d="M104 282q5 69 38 124t86.5 95t123.5 65.5t151 35.5q79 10 159 9.5t158 4.5v12q4 58 -3.5 110t-31.5 92t-66 63.5t-106 23.5q-95 0 -176.5 -34.5t-137.5 -119.5l-83 93q32 52 76.5 89.5t98 61.5t114.5 35t128 11q55 -2 106 -15t92 -37t71 -59.5t43 -81.5q0 -1 0.5 -2 t0.5 -2q32 49 73 85.5t88.5 61t100 37t106.5 13.5q121 0 206 -38.5t136.5 -108t71.5 -167t11 -215.5l-4 -45h-755q0 -3 -1 -7.5t-1 -8.5q-5 -67 4 -130t39.5 -112t86 -78.5t143.5 -29.5q103 0 194.5 47t154.5 132l81 -86q-76 -115 -190 -173t-260 -58q-60 0 -115.5 14.5 t-102 43t-83 69.5t-60.5 95q-73 -104 -185 -161.5t-246 -63.5q-79 0 -143 21.5t-109 61.5t-67 97.5t-16 129.5zM273 290q-4 -49 12 -83.5t45.5 -56t69 -31.5t83.5 -10q87 0 147.5 30.5t98.5 81.5t57 118t25 140l-146 -3q-74 -2 -142.5 -8t-122 -25.5t-88 -55.5t-39.5 -97z M992 616h581v10q-1 64 -15 118t-44 92t-77 59.5t-114 21.5q-69 0 -125.5 -24.5t-99 -66t-69.5 -96t-37 -114.5z" />
<glyph unicode="&#xe7;" horiz-adv-x="1046" d="M131 503q9 112 51 212t113 174.5t169.5 118t220.5 43.5q121 0 209 -38t133 -105l-83 -107q-43 60 -110 88t-145 28q-83 0 -150.5 -32t-117.5 -87.5t-79.5 -130t-36.5 -159.5q-7 -84 8.5 -157t54 -127t102 -84.5t153.5 -30.5q169 0 313 116l35 -138q-78 -58 -170 -84 t-201 -26q-127 0 -219 41.5t-150.5 113t-83 167.5t-16.5 204zM407 -374l15 85q43 -11 80.5 -17.5t68.5 -6.5q63 0 90 20t29 52q4 41 -25.5 57t-77.5 16q-3 0 -14 -1t-23 -2l-32 -2l48 190h97l-27 -107q42 -1 79.5 -9.5t64.5 -26.5t42 -45.5t12 -67.5q-4 -40 -24.5 -69.5 t-54.5 -49t-79 -29t-96 -9.5q-39 0 -83.5 6.5t-89.5 15.5z" />
<glyph unicode="&#xe8;" horiz-adv-x="1173" d="M155 510q9 111 50.5 209t112.5 172t168 117t217 43q118 0 202 -38.5t134.5 -106t70.5 -160.5t12 -202q-1 -11 -2.5 -25.5t-3.5 -26.5h-787l-1 -45q0 -75 20 -137t59.5 -107t99 -69.5t138.5 -24.5q106 0 196.5 37t166.5 106l40 -137q-89 -72 -192.5 -105t-231.5 -33 q-121 0 -213 39.5t-151.5 110t-86.5 168.5t-18 215zM345 609h609v14q0 65 -16 119t-49 93t-83 60.5t-115 21.5q-70 0 -128 -24.5t-101.5 -66.5t-73 -98t-43.5 -119zM473 1492h214l222 -320h-129z" />
<glyph unicode="&#xe9;" horiz-adv-x="1173" d="M155 510q9 111 50.5 209t112.5 172t168 117t217 43q118 0 202 -38.5t134.5 -106t70.5 -160.5t12 -202q-1 -11 -2.5 -25.5t-3.5 -26.5h-787l-1 -45q0 -75 20 -137t59.5 -107t99 -69.5t138.5 -24.5q106 0 196.5 37t166.5 106l40 -137q-89 -72 -192.5 -105t-231.5 -33 q-121 0 -213 39.5t-151.5 110t-86.5 168.5t-18 215zM345 609h609v14q0 65 -16 119t-49 93t-83 60.5t-115 21.5q-70 0 -128 -24.5t-101.5 -66.5t-73 -98t-43.5 -119zM459 1172l251 320h212l-333 -320h-130z" />
<glyph unicode="&#xea;" horiz-adv-x="1173" d="M155 510q9 111 50.5 209t112.5 172t168 117t217 43q118 0 202 -38.5t134.5 -106t70.5 -160.5t12 -202q-1 -11 -2.5 -25.5t-3.5 -26.5h-787l-1 -45q0 -75 20 -137t59.5 -107t99 -69.5t138.5 -24.5q106 0 196.5 37t166.5 106l40 -137q-89 -72 -192.5 -105t-231.5 -33 q-121 0 -213 39.5t-151.5 110t-86.5 168.5t-18 215zM345 609h609v14q0 65 -16 119t-49 93t-83 60.5t-115 21.5q-70 0 -128 -24.5t-101.5 -66.5t-73 -98t-43.5 -119zM371 1170l253 324h157l204 -324h-132l-161 216l-195 -216h-126z" />
<glyph unicode="&#xeb;" horiz-adv-x="1173" d="M155 510q9 111 50.5 209t112.5 172t168 117t217 43q118 0 202 -38.5t134.5 -106t70.5 -160.5t12 -202q-1 -11 -2.5 -25.5t-3.5 -26.5h-787l-1 -45q0 -75 20 -137t59.5 -107t99 -69.5t138.5 -24.5q106 0 196.5 37t166.5 106l40 -137q-89 -72 -192.5 -105t-231.5 -33 q-121 0 -213 39.5t-151.5 110t-86.5 168.5t-18 215zM345 609h609v14q0 65 -16 119t-49 93t-83 60.5t-115 21.5q-70 0 -128 -24.5t-101.5 -66.5t-73 -98t-43.5 -119zM436 1246l13 163h164l-14 -163h-163zM768 1246l13 163h164l-13 -163h-164z" />
<glyph unicode="&#xec;" horiz-adv-x="503" d="M138 1492h214l222 -320h-129zM168 0l80 1026h165l-80 -1026h-165z" />
<glyph unicode="&#xed;" horiz-adv-x="503" d="M126 1172l251 320h212l-333 -320h-130zM168 0l80 1026h165l-80 -1026h-165z" />
<glyph unicode="&#xee;" horiz-adv-x="503" d="M38 1170l253 324h157l204 -324h-132l-161 216l-195 -216h-126zM168 0l80 1026h165l-80 -1026h-165z" />
<glyph unicode="&#xef;" horiz-adv-x="503" d="M103 1246l13 163h164l-14 -163h-163zM168 0l80 1026h165l-80 -1026h-165zM435 1246l13 163h164l-13 -163h-164z" />
<glyph unicode="&#xf0;" d="M123 446q8 99 46.5 182t102.5 142.5t151 93t192 33.5q125 0 217.5 -42t142.5 -132v2q13 172 -13 301h-262l11 137h206q-37 78 -94 137t-139 106l86 84q109 -44 187.5 -127t126.5 -200h197l-11 -137h-145q17 -80 22.5 -168.5t-1.5 -185.5q-14 -168 -58 -297.5t-116.5 -218 t-171.5 -134t-221 -45.5q-113 0 -201.5 36t-148 99t-87 149t-19.5 185zM298 441q-5 -69 12.5 -128t54.5 -102.5t92 -68t125 -24.5q87 0 152 33.5t109.5 88t68.5 123t29 138.5q1 8 1.5 18t2.5 17q-13 49 -41.5 89.5t-69 70t-92 45.5t-111.5 16q-79 0 -139 -24t-101 -66.5 t-64 -100.5t-29 -125z" />
<glyph unicode="&#xf1;" horiz-adv-x="1217" d="M168 0l61 779q4 46 6.5 90.5t4.5 79.5q1 40 3 77h167l-7 -142q66 85 154 126t203 41q112 0 182 -37t107 -103.5t46.5 -158.5t0.5 -202l-43 -550h-165l42 531q7 87 5 158.5t-22.5 122t-66.5 78t-127 27.5q-75 0 -135 -29t-103.5 -70t-68.5 -86.5t-28 -79.5l-51 -652h-165z M381 1203q8 47 27 85.5t46.5 66.5t64 43t78.5 15q35 0 66.5 -10.5t61.5 -23.5t58.5 -23.5t57.5 -10.5q34 0 59.5 22.5t34.5 67.5h108q-8 -45 -25.5 -84t-45 -68.5t-63 -46t-78.5 -16.5q-30 0 -61.5 10.5t-63.5 23.5t-63 23.5t-59 10.5q-81 0 -98 -85h-105z" />
<glyph unicode="&#xf2;" horiz-adv-x="1238" d="M130 511q8 111 51 209.5t116.5 172t175 116t229.5 42.5q129 0 223.5 -42t153.5 -115t84.5 -171t16.5 -210q-9 -108 -51 -205.5t-114.5 -171t-173.5 -116.5t-227 -43q-128 0 -223 42t-155.5 114t-87.5 169.5t-18 208.5zM303 509q-7 -80 10 -152t57 -127.5t104.5 -88 t153.5 -32.5q88 0 155.5 33t115 88.5t74 128t33.5 152.5q6 82 -9 156t-53.5 129.5t-102 88t-153.5 32.5q-87 0 -156 -33.5t-117.5 -90t-77 -130.5t-34.5 -154zM505 1492h214l222 -320h-129z" />
<glyph unicode="&#xf3;" horiz-adv-x="1238" d="M130 511q8 111 51 209.5t116.5 172t175 116t229.5 42.5q129 0 223.5 -42t153.5 -115t84.5 -171t16.5 -210q-9 -108 -51 -205.5t-114.5 -171t-173.5 -116.5t-227 -43q-128 0 -223 42t-155.5 114t-87.5 169.5t-18 208.5zM303 509q-7 -80 10 -152t57 -127.5t104.5 -88 t153.5 -32.5q88 0 155.5 33t115 88.5t74 128t33.5 152.5q6 82 -9 156t-53.5 129.5t-102 88t-153.5 32.5q-87 0 -156 -33.5t-117.5 -90t-77 -130.5t-34.5 -154zM492 1172l251 320h212l-333 -320h-130z" />
<glyph unicode="&#xf4;" horiz-adv-x="1238" d="M130 511q8 111 51 209.5t116.5 172t175 116t229.5 42.5q129 0 223.5 -42t153.5 -115t84.5 -171t16.5 -210q-9 -108 -51 -205.5t-114.5 -171t-173.5 -116.5t-227 -43q-128 0 -223 42t-155.5 114t-87.5 169.5t-18 208.5zM303 509q-7 -80 10 -152t57 -127.5t104.5 -88 t153.5 -32.5q88 0 155.5 33t115 88.5t74 128t33.5 152.5q6 82 -9 156t-53.5 129.5t-102 88t-153.5 32.5q-87 0 -156 -33.5t-117.5 -90t-77 -130.5t-34.5 -154zM404 1170l253 324h157l204 -324h-132l-161 216l-195 -216h-126z" />
<glyph unicode="&#xf5;" horiz-adv-x="1238" d="M130 511q8 111 51 209.5t116.5 172t175 116t229.5 42.5q129 0 223.5 -42t153.5 -115t84.5 -171t16.5 -210q-9 -108 -51 -205.5t-114.5 -171t-173.5 -116.5t-227 -43q-128 0 -223 42t-155.5 114t-87.5 169.5t-18 208.5zM303 509q-7 -80 10 -152t57 -127.5t104.5 -88 t153.5 -32.5q88 0 155.5 33t115 88.5t74 128t33.5 152.5q6 82 -9 156t-53.5 129.5t-102 88t-153.5 32.5q-87 0 -156 -33.5t-117.5 -90t-77 -130.5t-34.5 -154zM392 1203q8 47 27 85.5t46.5 66.5t64 43t78.5 15q35 0 66.5 -10.5t61.5 -23.5t58.5 -23.5t57.5 -10.5 q34 0 59.5 22.5t34.5 67.5h108q-8 -45 -25.5 -84t-45 -68.5t-63 -46t-78.5 -16.5q-30 0 -61.5 10.5t-63.5 23.5t-63 23.5t-59 10.5q-81 0 -98 -85h-105z" />
<glyph unicode="&#xf6;" horiz-adv-x="1238" d="M130 511q8 111 51 209.5t116.5 172t175 116t229.5 42.5q129 0 223.5 -42t153.5 -115t84.5 -171t16.5 -210q-9 -108 -51 -205.5t-114.5 -171t-173.5 -116.5t-227 -43q-128 0 -223 42t-155.5 114t-87.5 169.5t-18 208.5zM303 509q-7 -80 10 -152t57 -127.5t104.5 -88 t153.5 -32.5q88 0 155.5 33t115 88.5t74 128t33.5 152.5q6 82 -9 156t-53.5 129.5t-102 88t-153.5 32.5q-87 0 -156 -33.5t-117.5 -90t-77 -130.5t-34.5 -154zM469 1246l13 163h164l-14 -163h-163zM801 1246l13 163h164l-13 -163h-164z" />
<glyph unicode="&#xf7;" horiz-adv-x="1458" d="M238 485l9 139h1047l-10 -139h-1046zM620 21l17 210h217l-17 -210h-217zM688 873l16 210h217l-16 -210h-217z" />
<glyph unicode="&#xf8;" horiz-adv-x="1238" d="M130 511q9 111 51.5 209.5t116 172t175.5 116t230 42.5q85 0 158 -20l124 246l100 -32l-127 -252q62 -33 107 -82.5t72.5 -111.5t38.5 -134.5t4 -151.5q-8 -108 -50 -205.5t-114.5 -171t-174 -116.5t-227.5 -43q-85 0 -158 20l-131 -258l-96 32l132 263q-64 33 -110 82 t-74.5 110.5t-40.5 133.5t-6 151zM303 509q-4 -52 1.5 -101.5t21 -93t41.5 -80.5t61 -64l368 732q-24 7 -51 11t-57 4q-87 0 -155.5 -33.5t-117.5 -90t-77.5 -130.5t-34.5 -154zM520 124q48 -15 109 -15q88 0 155.5 33t115 88.5t74 128t32.5 152.5q9 108 -19.5 198.5 t-98.5 145.5z" />
<glyph unicode="&#xf9;" horiz-adv-x="1217" d="M187.5 298.5q-3.5 50.5 0.5 100.5l49 627h165l-49 -627q-12 -143 44 -216.5t189 -73.5q72 0 129.5 26t99.5 71t67 104.5t30 125.5l46 590h165l-61 -780q-5 -66 -8.5 -124.5t-2.5 -121.5h-170l7 135q-128 -158 -350 -158q-76 0 -133 17.5t-97 47.5t-65 71t-38.5 88 t-17 97.5zM495 1492h214l222 -320h-129z" />
<glyph unicode="&#xfa;" horiz-adv-x="1217" d="M187.5 298.5q-3.5 50.5 0.5 100.5l49 627h165l-49 -627q-12 -143 44 -216.5t189 -73.5q72 0 129.5 26t99.5 71t67 104.5t30 125.5l46 590h165l-61 -780q-5 -66 -8.5 -124.5t-2.5 -121.5h-170l7 135q-128 -158 -350 -158q-76 0 -133 17.5t-97 47.5t-65 71t-38.5 88 t-17 97.5zM481 1172l251 320h212l-333 -320h-130z" />
<glyph unicode="&#xfb;" horiz-adv-x="1217" d="M187.5 298.5q-3.5 50.5 0.5 100.5l49 627h165l-49 -627q-12 -143 44 -216.5t189 -73.5q72 0 129.5 26t99.5 71t67 104.5t30 125.5l46 590h165l-61 -780q-5 -66 -8.5 -124.5t-2.5 -121.5h-170l7 135q-128 -158 -350 -158q-76 0 -133 17.5t-97 47.5t-65 71t-38.5 88 t-17 97.5zM393 1170l253 324h157l204 -324h-132l-161 216l-195 -216h-126z" />
<glyph unicode="&#xfc;" horiz-adv-x="1217" d="M187.5 298.5q-3.5 50.5 0.5 100.5l49 627h165l-49 -627q-12 -143 44 -216.5t189 -73.5q72 0 129.5 26t99.5 71t67 104.5t30 125.5l46 590h165l-61 -780q-5 -66 -8.5 -124.5t-2.5 -121.5h-170l7 135q-128 -158 -350 -158q-76 0 -133 17.5t-97 47.5t-65 71t-38.5 88 t-17 97.5zM458 1246l13 163h164l-14 -163h-163zM790 1246l13 163h164l-13 -163h-164z" />
<glyph unicode="&#xfd;" horiz-adv-x="1069" d="M84 -314q86 22 143.5 54t95 68t60 74.5t38.5 74.5l21 49l-345 1020h181l265 -855l408 855h175l-540 -1098q-32 -66 -74.5 -125t-95.5 -105.5t-115 -79t-134 -45.5zM407 1172l251 320h212l-333 -320h-130z" />
<glyph unicode="&#xfe;" horiz-adv-x="1239" d="M124 -427l148 1882h167l-45 -573q70 84 161 126.5t195 42.5q121 0 206.5 -42t137.5 -113.5t73.5 -166.5t12.5 -202q-8 -108 -45.5 -207.5t-102 -175.5t-156.5 -121.5t-210 -45.5q-216 0 -333 158l-44 -562h-165zM361 494q-6 -83 9.5 -153.5t52 -122t94 -80.5t135.5 -29 q84 0 147.5 34t106.5 91t67 131.5t31 155.5q6 76 -4.5 147.5t-42.5 127t-89.5 88.5t-145.5 33q-92 0 -157.5 -35t-108.5 -93.5t-65.5 -135t-29.5 -159.5z" />
<glyph unicode="&#xff;" horiz-adv-x="1069" d="M84 -314q86 22 143.5 54t95 68t60 74.5t38.5 74.5l21 49l-345 1020h181l265 -855l408 855h175l-540 -1098q-32 -66 -74.5 -125t-95.5 -105.5t-115 -79t-134 -45.5zM384 1246l13 163h164l-14 -163h-163zM716 1246l13 163h164l-13 -163h-164z" />
<glyph unicode="&#x152;" horiz-adv-x="2099" d="M172 729q12 164 72 302t161 238.5t239.5 157t309.5 56.5q88 0 164.5 -26.5t141.5 -75.5l6 75h803l-12 -148h-631l-38 -488h593l-12 -148h-593l-41 -524h661l-12 -148h-833l8 105q-74 -62 -157.5 -95t-174.5 -33q-167 0 -295 53t-213 151t-123 237t-24 311zM355 725 q-10 -126 15 -235.5t85 -190.5t155.5 -127.5t226.5 -46.5q100 0 183.5 37t151.5 103l75 954q-58 55 -135 85.5t-177 30.5q-131 0 -234 -50t-177 -134t-116.5 -194.5t-52.5 -231.5z" />
<glyph unicode="&#x153;" horiz-adv-x="1970" d="M132 509q8 111 51 210t116.5 173.5t175.5 117.5t228 43q148 0 242.5 -58.5t145.5 -173.5q64 115 167.5 173.5t241.5 58.5q110 0 191.5 -38t133 -107t72.5 -166.5t12 -216.5l-4 -53l-755 -2q-6 -77 7.5 -143t48.5 -114.5t90 -76t133 -27.5q103 0 192.5 49.5t149.5 133.5 l81 -86q-77 -121 -193 -177.5t-252 -56.5t-232.5 58.5t-136.5 178.5l-1 -3q-29 -61 -73.5 -105.5t-100 -73t-121 -42t-135.5 -13.5q-123 0 -216 42t-153 115t-87.5 171t-18.5 209zM305 507q-7 -81 9 -153t55.5 -126.5t103.5 -86.5t155 -32q84 0 148 33t108.5 88.5t69.5 128 t31 152.5q7 86 -7 160.5t-50 129t-96.5 85.5t-147.5 31q-85 0 -152 -33.5t-115.5 -90t-77 -130.5t-34.5 -156zM1161 609h582q6 66 -6.5 122.5t-43.5 98t-80 64.5t-118 23t-126.5 -25.5t-101 -68t-71 -98.5t-35.5 -116z" />
<glyph unicode="&#x178;" horiz-adv-x="1266" d="M125 1456h191l374 -729l492 729h191l-612 -871l-46 -585h-172l46 582zM538 1676l13 163h164l-14 -163h-163zM870 1676l13 163h164l-13 -163h-164z" />
<glyph unicode="&#x2c6;" horiz-adv-x="699" d="M127 1170l253 324h157l204 -324h-132l-161 216l-195 -216h-126z" />
<glyph unicode="&#x2dc;" horiz-adv-x="663" d="M109 1203q8 47 27 85.5t46.5 66.5t64 43t78.5 15q35 0 66.5 -10.5t61.5 -23.5t58.5 -23.5t57.5 -10.5q34 0 59.5 22.5t34.5 67.5h108q-8 -45 -25.5 -84t-45 -68.5t-63 -46t-78.5 -16.5q-30 0 -61.5 10.5t-63.5 23.5t-63 23.5t-59 10.5q-81 0 -98 -85h-105z" />
<glyph unicode="&#x2000;" horiz-adv-x="980" />
<glyph unicode="&#x2001;" horiz-adv-x="1960" />
<glyph unicode="&#x2002;" horiz-adv-x="980" />
<glyph unicode="&#x2003;" horiz-adv-x="1960" />
<glyph unicode="&#x2004;" horiz-adv-x="653" />
<glyph unicode="&#x2005;" horiz-adv-x="490" />
<glyph unicode="&#x2006;" horiz-adv-x="326" />
<glyph unicode="&#x2007;" horiz-adv-x="326" />
<glyph unicode="&#x2008;" horiz-adv-x="245" />
<glyph unicode="&#x2009;" horiz-adv-x="392" />
<glyph unicode="&#x200a;" horiz-adv-x="108" />
<glyph unicode="&#x2010;" horiz-adv-x="728" d="M118 489l10 137h571l-10 -137h-571z" />
<glyph unicode="&#x2011;" horiz-adv-x="728" d="M118 489l10 137h571l-10 -137h-571z" />
<glyph unicode="&#x2012;" horiz-adv-x="728" d="M118 489l10 137h571l-10 -137h-571z" />
<glyph unicode="&#x2013;" horiz-adv-x="1085" d="M32 489l11 137h1090l-11 -137h-1090z" />
<glyph unicode="&#x2014;" horiz-adv-x="2171" d="M35 489l11 137h2163l-11 -137h-2163z" />
<glyph unicode="&#x2018;" horiz-adv-x="553" d="M211 1023l189 440h132l-139 -440h-182z" />
<glyph unicode="&#x2019;" horiz-adv-x="553" d="M221 1023l140 440h181l-189 -440h-132z" />
<glyph unicode="&#x201a;" horiz-adv-x="553" d="M106 -238l141 439h181l-189 -439h-133z" />
<glyph unicode="&#x201c;" horiz-adv-x="1024" d="M260 1023l189 440h133l-140 -440h-182zM609 1023l189 440h133l-139 -440h-183z" />
<glyph unicode="&#x201d;" horiz-adv-x="1024" d="M289 1023l139 440h182l-188 -440h-133zM615 1023l140 440h182l-189 -440h-133z" />
<glyph unicode="&#x201e;" horiz-adv-x="1024" d="M159 -238l140 439h182l-188 -439h-134zM518 -238l139 439h183l-189 -439h-133z" />
<glyph unicode="&#x2022;" horiz-adv-x="989" d="M212 694q5 64 37 121.5t82.5 101t114.5 68.5t132 25q69 0 128 -24.5t101 -66.5t64 -98.5t18 -119.5q-6 -65 -38 -122t-81.5 -100.5t-113 -68.5t-132.5 -25q-70 0 -130 24.5t-102 67t-63.5 98.5t-16.5 119z" />
<glyph unicode="&#x2026;" horiz-adv-x="1620" d="M158 -11l17 210h217l-17 -210h-217zM698 -11l17 210h217l-17 -210h-217zM1238 -11l17 210h217l-17 -210h-217z" />
<glyph unicode="&#x202f;" horiz-adv-x="392" />
<glyph unicode="&#x2039;" horiz-adv-x="642" d="M148 541l303 373h159l-292 -373l226 -370h-156z" />
<glyph unicode="&#x203a;" horiz-adv-x="642" d="M116 171l291 371l-225 372h155l242 -372l-306 -371h-157z" />
<glyph unicode="&#x205f;" horiz-adv-x="490" />
<glyph unicode="&#x20ac;" d="M119 516l31 138h102q0 24 2 54.5t7 75.5h-124l33 138h121q30 115 84 211.5t130.5 166.5t174.5 109t217 39q100 0 178 -29t136 -89l-51 -189q-47 81 -120 121.5t-161 40.5q-81 0 -146.5 -30t-116.5 -82t-88 -121.5t-60 -147.5h592l-31 -138h-590q-6 -34 -7 -66.5t-2 -61.5 v-2h575l-30 -138h-542q5 -87 26.5 -158.5t63 -123.5t104 -80.5t150.5 -28.5q75 0 157 31t170 97l-15 -178q-79 -51 -163.5 -73.5t-175.5 -22.5q-123 0 -213.5 39t-151.5 109.5t-93 169.5t-38 219h-135z" />
<glyph unicode="&#x2122;" horiz-adv-x="1869" d="M176 1350l8 101h638l-9 -101h-260l-52 -664h-124l52 664h-253zM873 686l60 765h190l193 -551l293 551h180l-60 -765h-122l47 595l-321 -595h-80l-213 594l-46 -594h-121z" />
<glyph unicode="&#xfb01;" horiz-adv-x="1205" d="M118 919l7 107h201l11 112q8 81 28 150t58 119t97 78.5t144 28.5q21 0 38 -1.5t32 -4.5t30.5 -7t33.5 -8l-8 -129q-19 8 -49.5 11.5t-59.5 3.5q-51 0 -83.5 -14t-51.5 -41.5t-29 -68t-14 -93.5l-12 -136h247l-7 -107h-248l-72 -919h-165l72 919h-200zM869 0l81 1026h165 l-81 -1026h-165zM980 1307l12 155h153l-12 -155h-153z" />
<glyph unicode="&#xfb02;" horiz-adv-x="1205" d="M118 919l7 107h201l11 112q8 81 28 150t58 119t97 78.5t144 28.5q21 0 38 -1.5t32 -4.5t30.5 -7t33.5 -8l-8 -129q-19 8 -49.5 11.5t-59.5 3.5q-51 0 -83.5 -14t-51.5 -41.5t-29 -68t-14 -93.5l-12 -136h247l-7 -107h-248l-72 -919h-165l72 919h-200zM870 0l117 1492h165 l-117 -1492h-165z" />
</font>
</defs>
</svg>
